  0
SECTION
  2
HEADER
  9
$ACADVER
  1
AC1018
  9
$ACADMAINTVER
 70
     0
  9
$DWGCODEPAGE
  3
ANSI_1252
  9
$INSBASE
 10
0.0
 20
0.0
 30
0.0
  9
$EXTMIN
 10
-372.3548368170558
 20
-288.4577147676535
 30
0.0
  9
$EXTMAX
 10
-75.35483681705773
 20
-78.45771476765339
 30
0.0
  9
$LIMMIN
 10
0.0
 20
0.0
  9
$LIMMAX
 10
12.0
 20
9.0
  9
$ORTHOMODE
 70
     0
  9
$REGENMODE
 70
     1
  9
$FILLMODE
 70
     1
  9
$QTEXTMODE
 70
     0
  9
$MIRRTEXT
 70
     1
  9
$LTSCALE
 40
1.0
  9
$ATTMODE
 70
     1
  9
$TEXTSIZE
 40
0.2
  9
$TRACEWID
 40
0.05
  9
$TEXTSTYLE
  7
Standard
  9
$CLAYER
  8
0
  9
$CELTYPE
  6
ByLayer
  9
$CECOLOR
 62
   256
  9
$CELTSCALE
 40
1.0
  9
$DISPSILH
 70
     0
  9
$DIMSCALE
 40
1.0
  9
$DIMASZ
 40
0.18
  9
$DIMEXO
 40
0.0625
  9
$DIMDLI
 40
0.38
  9
$DIMRND
 40
0.0
  9
$DIMDLE
 40
0.0
  9
$DIMEXE
 40
0.18
  9
$DIMTP
 40
0.0
  9
$DIMTM
 40
0.0
  9
$DIMTXT
 40
0.18
  9
$DIMCEN
 40
0.09
  9
$DIMTSZ
 40
0.0
  9
$DIMTOL
 70
     0
  9
$DIMLIM
 70
     0
  9
$DIMTIH
 70
     1
  9
$DIMTOH
 70
     1
  9
$DIMSE1
 70
     0
  9
$DIMSE2
 70
     0
  9
$DIMTAD
 70
     0
  9
$DIMZIN
 70
     0
  9
$DIMBLK
  1

  9
$DIMASO
 70
     1
  9
$DIMSHO
 70
     1
  9
$DIMPOST
  1

  9
$DIMAPOST
  1

  9
$DIMALT
 70
     0
  9
$DIMALTD
 70
     2
  9
$DIMALTF
 40
25.4
  9
$DIMLFAC
 40
1.0
  9
$DIMTOFL
 70
     0
  9
$DIMTVP
 40
0.0
  9
$DIMTIX
 70
     0
  9
$DIMSOXD
 70
     0
  9
$DIMSAH
 70
     0
  9
$DIMBLK1
  1

  9
$DIMBLK2
  1

  9
$DIMSTYLE
  2
Standard
  9
$DIMCLRD
 70
     0
  9
$DIMCLRE
 70
     0
  9
$DIMCLRT
 70
     0
  9
$DIMTFAC
 40
1.0
  9
$DIMGAP
 40
0.09
  9
$DIMJUST
 70
     0
  9
$DIMSD1
 70
     0
  9
$DIMSD2
 70
     0
  9
$DIMTOLJ
 70
     1
  9
$DIMTZIN
 70
     0
  9
$DIMALTZ
 70
     0
  9
$DIMALTTZ
 70
     0
  9
$DIMUPT
 70
     0
  9
$DIMDEC
 70
     4
  9
$DIMTDEC
 70
     4
  9
$DIMALTU
 70
     2
  9
$DIMALTTD
 70
     2
  9
$DIMTXSTY
  7
Standard
  9
$DIMAUNIT
 70
     0
  9
$DIMADEC
 70
     0
  9
$DIMALTRND
 40
0.0
  9
$DIMAZIN
 70
     0
  9
$DIMDSEP
 70
    46
  9
$DIMATFIT
 70
     3
  9
$DIMFRAC
 70
     0
  9
$DIMLDRBLK
  1

  9
$DIMLUNIT
 70
     2
  9
$DIMLWD
 70
    -2
  9
$DIMLWE
 70
    -2
  9
$DIMTMOVE
 70
     0
  9
$LUNITS
 70
     2
  9
$LUPREC
 70
     4
  9
$SKETCHINC
 40
0.1
  9
$FILLETRAD
 40
0.5
  9
$AUNITS
 70
     0
  9
$AUPREC
 70
     0
  9
$MENU
  1
.
  9
$ELEVATION
 40
0.0
  9
$PELEVATION
 40
0.0
  9
$THICKNESS
 40
0.0
  9
$LIMCHECK
 70
     0
  9
$CHAMFERA
 40
0.5
  9
$CHAMFERB
 40
0.5
  9
$CHAMFERC
 40
1.0
  9
$CHAMFERD
 40
0.0
  9
$SKPOLY
 70
     0
  9
$TDCREATE
 40
2458215.553295972
  9
$TDUCREATE
 40
2458215.469962639
  9
$TDUPDATE
 40
2458215.553296516
  9
$TDUUPDATE
 40
2458215.469963183
  9
$TDINDWG
 40
0.0000000116
  9
$TDUSRTIMER
 40
0.0000000116
  9
$USRTIMER
 70
     1
  9
$ANGBASE
 50
0.0
  9
$ANGDIR
 70
     0
  9
$PDMODE
 70
     0
  9
$PDSIZE
 40
0.0
  9
$PLINEWID
 40
0.0
  9
$SPLFRAME
 70
     0
  9
$SPLINETYPE
 70
     6
  9
$SPLINESEGS
 70
     8
  9
$HANDSEED
  5
46C
  9
$SURFTAB1
 70
     6
  9
$SURFTAB2
 70
     6
  9
$SURFTYPE
 70
     6
  9
$SURFU
 70
     6
  9
$SURFV
 70
     6
  9
$UCSBASE
  2

  9
$UCSNAME
  2

  9
$UCSORG
 10
0.0
 20
0.0
 30
0.0
  9
$UCSXDIR
 10
1.0
 20
0.0
 30
0.0
  9
$UCSYDIR
 10
0.0
 20
1.0
 30
0.0
  9
$UCSORTHOREF
  2

  9
$UCSORTHOVIEW
 70
     0
  9
$UCSORGTOP
 10
0.0
 20
0.0
 30
0.0
  9
$UCSORGBOTTOM
 10
0.0
 20
0.0
 30
0.0
  9
$UCSORGLEFT
 10
0.0
 20
0.0
 30
0.0
  9
$UCSORGRIGHT
 10
0.0
 20
0.0
 30
0.0
  9
$UCSORGFRONT
 10
0.0
 20
0.0
 30
0.0
  9
$UCSORGBACK
 10
0.0
 20
0.0
 30
0.0
  9
$PUCSBASE
  2

  9
$PUCSNAME
  2

  9
$PUCSORG
 10
0.0
 20
0.0
 30
0.0
  9
$PUCSXDIR
 10
1.0
 20
0.0
 30
0.0
  9
$PUCSYDIR
 10
0.0
 20
1.0
 30
0.0
  9
$PUCSORTHOREF
  2

  9
$PUCSORTHOVIEW
 70
     0
  9
$PUCSORGTOP
 10
0.0
 20
0.0
 30
0.0
  9
$PUCSORGBOTTOM
 10
0.0
 20
0.0
 30
0.0
  9
$PUCSORGLEFT
 10
0.0
 20
0.0
 30
0.0
  9
$PUCSORGRIGHT
 10
0.0
 20
0.0
 30
0.0
  9
$PUCSORGFRONT
 10
0.0
 20
0.0
 30
0.0
  9
$PUCSORGBACK
 10
0.0
 20
0.0
 30
0.0
  9
$USERI1
 70
     0
  9
$USERI2
 70
     0
  9
$USERI3
 70
     0
  9
$USERI4
 70
     0
  9
$USERI5
 70
     0
  9
$USERR1
 40
18.1
  9
$USERR2
 40
0.0
  9
$USERR3
 40
0.0
  9
$USERR4
 40
0.0
  9
$USERR5
 40
0.0
  9
$WORLDVIEW
 70
     1
  9
$SHADEDGE
 70
     3
  9
$SHADEDIF
 70
    70
  9
$TILEMODE
 70
     1
  9
$MAXACTVP
 70
    64
  9
$PINSBASE
 10
0.0
 20
0.0
 30
0.0
  9
$PLIMCHECK
 70
     0
  9
$PEXTMIN
 10
1.00000000000000E+20
 20
1.00000000000000E+20
 30
1.00000000000000E+20
  9
$PEXTMAX
 10
-1.00000000000000E+20
 20
-1.00000000000000E+20
 30
-1.00000000000000E+20
  9
$PLIMMIN
 10
0.0
 20
0.0
  9
$PLIMMAX
 10
12.0
 20
9.0
  9
$UNITMODE
 70
     0
  9
$VISRETAIN
 70
     1
  9
$PLINEGEN
 70
     0
  9
$PSLTSCALE
 70
     1
  9
$TREEDEPTH
 70
  3020
  9
$CMLSTYLE
  2
Standard
  9
$CMLJUST
 70
     0
  9
$CMLSCALE
 40
1.0
  9
$PROXYGRAPHICS
 70
     1
  9
$MEASUREMENT
 70
     1
  9
$CELWEIGHT
370
    -1
  9
$ENDCAPS
280
     0
  9
$JOINSTYLE
280
     0
  9
$LWDISPLAY
290
     0
  9
$INSUNITS
 70
     4
  9
$HYPERLINKBASE
  1

  9
$STYLESHEET
  1

  9
$XEDIT
290
     1
  9
$CEPSNTYPE
380
     0
  9
$PSTYLEMODE
290
     1
  9
$FINGERPRINTGUID
  2
{9A8B95E7-FF7D-4DC5-A032-B89B43EA17E1}
  9
$VERSIONGUID
  2
{FAEB1C32-E019-11D5-929B-00C0DF256EC4}
  9
$EXTNAMES
290
     1
  9
$PSVPSCALE
 40
0.0
  9
$OLESTARTUP
290
     0
  9
$SORTENTS
280
   127
  9
$INDEXCTL
280
     0
  9
$HIDETEXT
280
     1
  9
$XCLIPFRAME
290
     0
  9
$HALOGAP
280
     0
  9
$OBSCOLOR
 70
   257
  9
$OBSLTYPE
280
     0
  9
$INTERSECTIONDISPLAY
280
     0
  9
$INTERSECTIONCOLOR
 70
   257
  9
$DIMASSOC
280
     2
  9
$PROJECTNAME
  1

  0
ENDSEC
  0
SECTION
  2
CLASSES
  0
CLASS
  1
ACDBDICTIONARYWDFLT
  2
AcDbDictionaryWithDefault
  3
ObjectDBX Classes
 90
        0
 91
        4
280
     0
281
     0
  0
CLASS
  1
VISUALSTYLE
  2
AcDbVisualStyle
  3
ObjectDBX Classes
 90
     4095
 91
        4
280
     0
281
     0
  0
CLASS
  1
MATERIAL
  2
AcDbMaterial
  3
ObjectDBX Classes
 90
     1153
 91
        4
280
     0
281
     0
  0
ENDSEC
  0
SECTION
  2
TABLES
  0
TABLE
  2
VPORT
  5
8
330
0
100
AcDbSymbolTable
 70
     1
  0
VPORT
  5
29
330
8
100
AcDbSymbolTableRecord
100
AcDbViewportTableRecord
  2
*Active
 70
     0
 10
0.0
 20
0.0
 11
1.0
 21
1.0
 12
-223.8548368170568
 22
-183.4577147676534
 13
0.0
 23
0.0
 14
0.5
 24
0.5
 15
0.5
 25
0.5
 16
0.0
 26
0.0
 36
1.0
 17
0.0
 27
0.0
 37
0.0
 40
231.0000000000001
 41
1.60267857142857
 42
50.0
 43
0.0
 44
0.0
 50
0.0
 51
0.0
 71
     0
 72
   100
 73
     1
 74
     3
 75
     0
 76
     0
 77
     0
 78
     0
281
     0
 65
     1
110
0.0
120
0.0
130
0.0
111
1.0
121
0.0
131
0.0
112
0.0
122
1.0
132
0.0
 79
     0
146
0.0
  0
ENDTAB
  0
TABLE
  2
LTYPE
  5
5
330
0
100
AcDbSymbolTable
 70
     8
  0
LTYPE
  5
14
330
5
100
AcDbSymbolTableRecord
100
AcDbLinetypeTableRecord
  2
ByBlock
 70
     0
  3

 72
    65
 73
     0
 40
0.0
  0
LTYPE
  5
15
330
5
100
AcDbSymbolTableRecord
100
AcDbLinetypeTableRecord
  2
ByLayer
 70
     0
  3

 72
    65
 73
     0
 40
0.0
  0
LTYPE
  5
16
330
5
100
AcDbSymbolTableRecord
100
AcDbLinetypeTableRecord
  2
Continuous
 70
     0
  3
Solid line
 72
    65
 73
     0
 40
0.0
  0
LTYPE
  5
3F
330
5
100
AcDbSymbolTableRecord
100
AcDbLinetypeTableRecord
  2
DASHED
 70
     0
  3
Dashed
 72
    65
 73
     2
 40
15.0
 49
7.0
 74
     0
 49
-8.0
 74
     0
  0
LTYPE
  5
40
330
5
100
AcDbSymbolTableRecord
100
AcDbLinetypeTableRecord
  2
DOTTED
 70
     0
  3
Dotted
 72
    65
 73
     2
 40
1.0
 49
0.0
 74
     0
 49
-1.0
 74
     0
  0
LTYPE
  5
41
330
5
100
AcDbSymbolTableRecord
100
AcDbLinetypeTableRecord
  2
DOT_CENTER
 70
     0
  3
Dot_Center
 72
    65
 73
     4
 40
14.0
 49
12.0
 74
     0
 49
-1.0
 74
     0
 49
0.0
 74
     0
 49
-1.0
 74
     0
  0
LTYPE
  5
42
330
5
100
AcDbSymbolTableRecord
100
AcDbLinetypeTableRecord
  2
LONG_DASHED
 70
     0
  3
Long_Dashed
 72
    65
 73
     2
 40
15.0
 49
10.0
 74
     0
 49
-5.0
 74
     0
  0
LTYPE
  5
43
330
5
100
AcDbSymbolTableRecord
100
AcDbLinetypeTableRecord
  2
DASH_CENTER
 70
     0
  3
Dash_Center
 72
    65
 73
     4
 40
14.0
 49
11.0
 74
     0
 49
-1.0
 74
     0
 49
1.0
 74
     0
 49
-1.0
 74
     0
  0
LTYPE
  5
44
330
5
100
AcDbSymbolTableRecord
100
AcDbLinetypeTableRecord
  2
PHANTOM
 70
     0
  3
Phantom
 72
    65
 73
     6
 40
13.0
 49
10.0
 74
     0
 49
-1.0
 74
     0
 49
0.0
 74
     0
 49
-1.0
 74
     0
 49
0.0
 74
     0
 49
-1.0
 74
     0
  0
LTYPE
  5
45
330
5
100
AcDbSymbolTableRecord
100
AcDbLinetypeTableRecord
  2
CENTER_DASH_DASH
 70
     0
  3
Center_Dash_Dash
 72
    65
 73
     6
 40
14.0
 49
9.0
 74
     0
 49
-1.0
 74
     0
 49
1.0
 74
     0
 49
-1.0
 74
     0
 49
1.0
 74
     0
 49
-1.0
 74
     0
  0
ENDTAB
  0
TABLE
  2
LAYER
  5
2
330
0
100
AcDbSymbolTable
 70
     2
  0
LAYER
  5
10
330
2
100
AcDbSymbolTableRecord
100
AcDbLayerTableRecord
  2
0
 70
     0
 62
     7
  6
Continuous
370
    -3
390
F
  0
LAYER
  5
46
330
2
100
AcDbSymbolTableRecord
100
AcDbLayerTableRecord
  2
1
 70
     0
 62
     7
  6
Continuous
370
    -3
390
F
  0
ENDTAB
  0
TABLE
  2
STYLE
  5
3
330
0
100
AcDbSymbolTable
 70
     5
  0
STYLE
  5
11
330
3
100
AcDbSymbolTableRecord
100
AcDbTextStyleTableRecord
  2
Standard
 70
     0
 40
0.0
 41
1.0
 50
0.0
 71
     0
 42
0.2
  3
txt
  4

  0
STYLE
  5
150
330
3
100
AcDbSymbolTableRecord
100
AcDbTextStyleTableRecord
  2
CONVERTER_11
 70
     0
 40
0.0
 41
0.9
 50
0.0
 71
     0
 42
0.2
  3
txt.shx
  4

  0
STYLE
  5
407
330
3
100
AcDbSymbolTableRecord
100
AcDbTextStyleTableRecord
  2
CONVERTER_12
 70
     0
 40
0.0
 41
0.81
 50
0.0
 71
     0
 42
0.2
  3
txt.shx
  4

  0
STYLE
  5
41D
330
3
100
AcDbSymbolTableRecord
100
AcDbTextStyleTableRecord
  2
CONVERTER_13
 70
     0
 40
0.0
 41
0.72
 50
0.0
 71
     0
 42
0.2
  3
txt.shx
  4

  0
STYLE
  5
420
330
3
100
AcDbSymbolTableRecord
100
AcDbTextStyleTableRecord
  2
CONVERTER_14
 70
     0
 40
0.0
 41
0.855
 50
0.0
 71
     0
 42
0.2
  3
txt.shx
  4

  0
ENDTAB
  0
TABLE
  2
VIEW
  5
6
330
0
100
AcDbSymbolTable
 70
     0
  0
ENDTAB
  0
TABLE
  2
UCS
  5
7
330
0
100
AcDbSymbolTable
 70
     0
  0
ENDTAB
  0
TABLE
  2
APPID
  5
9
330
0
100
AcDbSymbolTable
 70
     1
  0
APPID
  5
12
330
9
100
AcDbSymbolTableRecord
100
AcDbRegAppTableRecord
  2
ACAD
 70
     0
  0
ENDTAB
  0
TABLE
  2
DIMSTYLE
  5
A
330
0
100
AcDbSymbolTable
 70
     7
100
AcDbDimStyleTable
  0
DIMSTYLE
105
27
330
A
100
AcDbSymbolTableRecord
100
AcDbDimStyleTableRecord
  2
Standard
 70
     0
178
     0
340
11
  0
DIMSTYLE
105
1F2
102
{ACAD_REACTORS
330
1F3
102
}
330
A
100
AcDbSymbolTableRecord
100
AcDbDimStyleTableRecord
  2
ME10_DIM_10
 70
     0
 41
3.5
 42
0.0
 44
1.5
 73
     0
 74
     0
 77
     1
 78
     8
140
3.5
147
1.5
172
     1
173
     1
174
     1
175
     1
176
     2
177
     2
271
     2
178
     3
271
     2
340
150
  0
DIMSTYLE
105
2DD
102
{ACAD_REACTORS
330
2DE
102
}
330
A
100
AcDbSymbolTableRecord
100
AcDbDimStyleTableRecord
  2
ME10_DIM_11
 70
     0
 41
3.5
 42
0.0
 44
1.5
 73
     0
 74
     0
 77
     1
 78
     8
140
3.5
147
1.5
172
     1
173
     1
174
     1
175
     1
176
     2
177
     2
178
     3
340
150
  0
DIMSTYLE
105
2E8
102
{ACAD_REACTORS
330
2E9
102
}
330
A
100
AcDbSymbolTableRecord
100
AcDbDimStyleTableRecord
  2
ME10_DIM_12
 70
     0
 41
3.5
 42
0.0
 44
1.5
 73
     0
 74
     0
 77
     1
 78
     8
140
3.5
147
1.5
172
     1
173
     1
174
     1
175
     1
176
     2
177
     2
178
     3
340
150
  0
DIMSTYLE
105
2F3
102
{ACAD_REACTORS
330
2F4
102
}
330
A
100
AcDbSymbolTableRecord
100
AcDbDimStyleTableRecord
  2
ME10_DIM_13
 70
     0
 41
3.5
 42
0.0
 44
1.5
 73
     0
 74
     0
 77
     1
 78
     8
140
3.5
147
1.5
172
     1
173
     1
174
     1
175
     1
176
     2
177
     2
178
     3
340
150
  0
DIMSTYLE
105
2FE
102
{ACAD_REACTORS
330
2FF
102
}
330
A
100
AcDbSymbolTableRecord
100
AcDbDimStyleTableRecord
  2
ME10_DIM_14
 70
     0
 41
3.5
 42
0.0
 44
1.5
 73
     0
 74
     0
 77
     1
 78
     8
140
3.5
147
1.5
172
     1
173
     1
174
     1
175
     1
176
     2
177
     2
271
     1
178
     3
271
     1
340
150
  0
DIMSTYLE
105
309
102
{ACAD_REACTORS
330
30A
102
}
330
A
100
AcDbSymbolTableRecord
100
AcDbDimStyleTableRecord
  2
ME10_DIM_15
 70
     0
 41
3.5
 42
0.0
 44
1.5
 73
     0
 74
     0
 77
     1
 78
     8
140
3.5
147
1.5
172
     1
173
     1
174
     1
175
     1
176
     2
177
     2
271
     1
178
     3
271
     1
340
150
  0
ENDTAB
  0
TABLE
  2
BLOCK_RECORD
  5
1
330
0
100
AcDbSymbolTable
 70
    23
  0
BLOCK_RECORD
  5
1F
330
1
100
AcDbSymbolTableRecord
100
AcDbBlockTableRecord
  2
*Model_Space
340
22
  0
BLOCK_RECORD
  5
1B
330
1
100
AcDbSymbolTableRecord
100
AcDbBlockTableRecord
  2
*Paper_Space
340
1E
  0
BLOCK_RECORD
  5
23
330
1
100
AcDbSymbolTableRecord
100
AcDbBlockTableRecord
  2
*Paper_Space0
340
26
  0
BLOCK_RECORD
  5
47
330
1
100
AcDbSymbolTableRecord
100
AcDbBlockTableRecord
  2
ST_4_DIO_1N_5408_R_L-select__1
340
0
102
{BLKREFS
331
4B
102
}
  0
BLOCK_RECORD
  5
4A
330
1
100
AcDbSymbolTableRecord
100
AcDbBlockTableRecord
  2
Allg1
340
0
102
{BLKREFS
331
7D
102
}
  0
BLOCK_RECORD
  5
4E
330
1
100
AcDbSymbolTableRecord
100
AcDbBlockTableRecord
  2
ST_4_DIO_1N_5408_R_L-select__2
340
0
102
{BLKREFS
331
52
102
}
  0
BLOCK_RECORD
  5
51
330
1
100
AcDbSymbolTableRecord
100
AcDbBlockTableRecord
  2
Drfsicht1
340
0
102
{BLKREFS
331
7E
102
}
  0
BLOCK_RECORD
  5
55
330
1
100
AcDbSymbolTableRecord
100
AcDbBlockTableRecord
  2
ST_4_DIO_1N_5408_R_L-select__3
340
0
102
{BLKREFS
331
59
102
}
  0
BLOCK_RECORD
  5
58
330
1
100
AcDbSymbolTableRecord
100
AcDbBlockTableRecord
  2
Rckans1
340
0
102
{BLKREFS
331
7F
102
}
  0
BLOCK_RECORD
  5
5C
330
1
100
AcDbSymbolTableRecord
100
AcDbBlockTableRecord
  2
ST_4_DIO_1N_5408_R_L-select__4
340
0
102
{BLKREFS
331
60
102
}
  0
BLOCK_RECORD
  5
5F
330
1
100
AcDbSymbolTableRecord
100
AcDbBlockTableRecord
  2
SA_Links1
340
0
102
{BLKREFS
331
80
102
}
  0
BLOCK_RECORD
  5
63
330
1
100
AcDbSymbolTableRecord
100
AcDbBlockTableRecord
  2
ST_4_DIO_1N_5408_R_L-select__5
340
0
102
{BLKREFS
331
67
102
}
  0
BLOCK_RECORD
  5
66
330
1
100
AcDbSymbolTableRecord
100
AcDbBlockTableRecord
  2
SA_Rechts1
340
0
102
{BLKREFS
331
81
102
}
  0
BLOCK_RECORD
  5
6A
330
1
100
AcDbSymbolTableRecord
100
AcDbBlockTableRecord
  2
ST_4_DIO_1N_5408_R_L-select__6
340
0
102
{BLKREFS
331
6E
102
}
  0
BLOCK_RECORD
  5
6D
330
1
100
AcDbSymbolTableRecord
100
AcDbBlockTableRecord
  2
Vordans1
340
0
102
{BLKREFS
331
82
102
}
  0
BLOCK_RECORD
  5
71
330
1
100
AcDbSymbolTableRecord
100
AcDbBlockTableRecord
  2
_rahmen
340
0
102
{BLKREFS
331
78
102
}
  0
BLOCK_RECORD
  5
74
330
1
100
AcDbSymbolTableRecord
100
AcDbBlockTableRecord
  2
_punkt
340
0
102
{BLKREFS
331
79
102
}
  0
BLOCK_RECORD
  5
77
330
1
100
AcDbSymbolTableRecord
100
AcDbBlockTableRecord
  2
A4I_CS
340
0
102
{BLKREFS
331
83
102
}
  0
BLOCK_RECORD
  5
7C
330
1
100
AcDbSymbolTableRecord
100
AcDbBlockTableRecord
  2
1
340
0
102
{BLKREFS
331
86
102
}
  0
BLOCK_RECORD
  5
1E7
330
1
100
AcDbSymbolTableRecord
100
AcDbBlockTableRecord
  2
*D17
340
0
  0
BLOCK_RECORD
  5
2D4
330
1
100
AcDbSymbolTableRecord
100
AcDbBlockTableRecord
  2
*D18
340
0
  0
BLOCK_RECORD
  5
2DF
330
1
100
AcDbSymbolTableRecord
100
AcDbBlockTableRecord
  2
*D19
340
0
  0
BLOCK_RECORD
  5
2EA
330
1
100
AcDbSymbolTableRecord
100
AcDbBlockTableRecord
  2
*D20
340
0
  0
BLOCK_RECORD
  5
2F5
330
1
100
AcDbSymbolTableRecord
100
AcDbBlockTableRecord
  2
*D21
340
0
  0
BLOCK_RECORD
  5
300
330
1
100
AcDbSymbolTableRecord
100
AcDbBlockTableRecord
  2
*D22
340
0
  0
ENDTAB
  0
ENDSEC
  0
SECTION
  2
BLOCKS
  0
BLOCK
  5
20
330
1F
100
AcDbEntity
  8
0
100
AcDbBlockBegin
  2
*Model_Space
 70
     0
 10
0.0
 20
0.0
 30
0.0
  3
*Model_Space
  1

  0
ENDBLK
  5
21
330
1F
100
AcDbEntity
  8
0
100
AcDbBlockEnd
  0
BLOCK
  5
1C
330
1B
100
AcDbEntity
 67
     1
  8
0
100
AcDbBlockBegin
  2
*Paper_Space
 70
     0
 10
0.0
 20
0.0
 30
0.0
  3
*Paper_Space
  1

  0
ENDBLK
  5
1D
330
1B
100
AcDbEntity
 67
     1
  8
0
100
AcDbBlockEnd
  0
BLOCK
  5
24
330
23
100
AcDbEntity
  8
0
100
AcDbBlockBegin
  2
*Paper_Space0
 70
     0
 10
0.0
 20
0.0
 30
0.0
  3
*Paper_Space0
  1

  0
ENDBLK
  5
25
330
23
100
AcDbEntity
  8
0
100
AcDbBlockEnd
  0
BLOCK
  5
48
330
47
100
AcDbEntity
  8
0
100
AcDbBlockBegin
  2
ST_4_DIO_1N_5408_R_L-select__1
 70
     0
 10
-185.742910176065
 20
-227.139866147964
 30
0.0
  3
ST_4_DIO_1N_5408_R_L-select__1
  1

  0
LINE
  5
87
330
47
100
AcDbEntity
  8
0
  6
Continuous
 62
     7
100
AcDbLine
 10
-184.2687320016167
 20
-185.8396144095952
 30
0.0
 11
-184.0453321770988
 21
-185.0703648885048
 31
0.0
  0
LINE
  5
88
330
47
100
AcDbEntity
  8
0
  6
Continuous
 62
     7
100
AcDbLine
 10
-181.0230134142526
 20
-189.5166750684712
 30
0.0
 11
-181.0230134142526
 21
-185.7927658321978
 31
0.0
  0
LINE
  5
89
330
47
100
AcDbEntity
  8
0
  6
Continuous
 62
     7
100
AcDbLine
 10
-181.0230134142526
 20
-185.7927658321978
 30
0.0
 11
-181.1529755360082
 21
-185.9053163311679
 31
0.0
  0
LINE
  5
8A
330
47
100
AcDbEntity
  8
0
  6
Continuous
 62
     7
100
AcDbLine
 10
-184.0453321770988
 20
-185.0703648885048
 30
0.0
 11
-181.1529755360082
 21
-185.9053163311679
 31
0.0
  0
LINE
  5
8B
330
47
100
AcDbEntity
  8
0
  6
Continuous
 62
     7
100
AcDbLine
 10
-184.2687320016167
 20
-185.8396144095952
 30
0.0
 11
-183.8943343339823
 21
-186.3220913743249
 31
0.0
  0
LINE
  5
8C
330
47
100
AcDbEntity
  8
0
  6
Continuous
 62
     2
100
AcDbLine
 10
-181.1529755360082
 20
-189.6292255674413
 30
0.0
 11
-181.0230134142526
 21
-189.5166750684712
 31
0.0
  0
LINE
  5
8D
330
47
100
AcDbEntity
  8
0
  6
Continuous
 62
     7
100
AcDbLine
 10
-185.1901071687835
 20
-190.7839240313825
 30
0.0
 11
-183.8002939170648
 21
-189.5803104488778
 31
0.0
  0
LINE
  5
8E
330
47
100
AcDbEntity
  8
0
  6
Continuous
 62
     7
100
AcDbLine
 10
-183.6100990426562
 20
-188.9253980452151
 30
0.0
 11
-185.7429101760649
 21
-190.7724666682213
 31
0.0
  0
LINE
  5
8F
330
47
100
AcDbEntity
  8
0
  6
Continuous
 62
     7
100
AcDbLine
 10
-183.8943343339823
 20
-186.3220913743249
 30
0.0
 11
-183.7229117723728
 21
-186.1736350811893
 31
0.0
  0
LINE
  5
90
330
47
100
AcDbEntity
  8
0
  6
Continuous
 62
     7
100
AcDbLine
 10
-183.8389693654012
 20
-186.1314489883777
 30
0.0
 11
-183.8232139856204
 21
-186.1178044292412
 31
0.0
  0
LINE
  5
91
330
47
100
AcDbEntity
  8
0
  6
Continuous
 62
     7
100
AcDbLine
 10
-183.8943343339823
 20
-186.3220913743249
 30
0.0
 11
-183.8389693654012
 21
-186.1314489883777
 31
0.0
  0
LINE
  5
92
330
47
100
AcDbEntity
  8
0
  6
Continuous
 62
     7
100
AcDbLine
 10
-182.9378568790888
 20
-186.6106157328418
 30
0.0
 11
-183.8333657687002
 21
-186.1121536998163
 31
0.0
  0
LINE
  5
93
330
47
100
AcDbEntity
  8
0
  6
Continuous
 62
     7
100
AcDbLine
 10
-181.1529755360082
 20
-189.6292255674413
 30
0.0
 11
-181.1529755360082
 21
-185.9053163311679
 31
0.0
  0
LINE
  5
94
330
47
100
AcDbEntity
  8
0
  6
Continuous
 62
     7
100
AcDbLine
 10
-185.2510757340653
 20
-190.9938617058899
 30
0.0
 11
-183.8612624823467
 21
-189.7902481233855
 31
0.0
  0
LINE
  5
95
330
47
100
AcDbEntity
  8
0
  6
Continuous
 62
     7
100
AcDbLine
 10
-185.2454721373671
 20
-190.9745664173381
 30
0.0
 11
-183.8556588856485
 21
-189.7709528348336
 31
0.0
  0
LINE
  5
96
330
47
100
AcDbEntity
  8
0
  6
Continuous
 62
     7
100
AcDbLine
 10
-180.1137450514669
 20
-190.7952509712258
 30
0.0
 11
-179.5941298091962
 21
-190.9452509712258
 31
0.0
  0
LINE
  5
97
330
47
100
AcDbEntity
  8
0
  6
Continuous
 62
     7
100
AcDbLine
 10
-185.7429101760649
 20
-195.0159224467718
 30
0.0
 11
-185.7429101760649
 21
-190.7724666682213
 31
0.0
  0
LINE
  5
98
330
47
100
AcDbEntity
  8
0
  6
Continuous
 62
     7
100
AcDbLine
 10
-185.7429101760649
 20
-190.7724666682213
 30
0.0
 11
-185.1901071687835
 21
-190.7839240313825
 31
0.0
  0
LINE
  5
99
330
47
100
AcDbEntity
  8
0
  6
Continuous
 62
     7
100
AcDbLine
 10
-180.2869501322238
 20
-190.7452509712258
 30
0.0
 11
-180.1137450514669
 21
-190.7952509712258
 31
0.0
  0
LINE
  5
9A
330
47
100
AcDbEntity
  8
0
  6
Continuous
 62
     7
100
AcDbLine
 10
-185.7429101760649
 20
-204.195791726885
 30
0.0
 11
-185.7429101760649
 21
-202.8101510808317
 31
0.0
  0
LINE
  5
9B
330
47
100
AcDbEntity
  8
0
  6
Continuous
 62
     7
100
AcDbLine
 10
-182.6252187224411
 20
-214.7086737088933
 30
0.0
 11
-184.4438720703884
 21
-214.1836737088933
 31
0.0
  0
LINE
  5
9C
330
47
100
AcDbEntity
  8
0
  6
Continuous
 62
     7
100
AcDbLine
 10
-182.6252187224411
 20
-205.095791726885
 30
0.0
 11
-182.6252187224411
 21
-214.7086737088933
 31
0.0
  0
LINE
  5
9D
330
47
100
AcDbEntity
  8
0
  6
Continuous
 62
     7
100
AcDbLine
 10
-184.4438720703884
 20
-214.1836737088933
 30
0.0
 11
-184.4438720703884
 21
-213.3789805647695
 31
0.0
  0
LINE
  5
9E
330
47
100
AcDbEntity
  8
0
  6
Continuous
 62
     7
100
AcDbLine
 10
-185.742910176065
 20
-212.4230330628381
 30
0.0
 11
-185.742910176065
 21
-215.1077118145699
 31
0.0
  0
LINE
  5
9F
330
47
100
AcDbEntity
  8
0
  6
Continuous
 62
     7
100
AcDbLine
 10
-182.6252187224411
 20
-211.8136211528175
 30
0.0
 11
-184.3742990090214
 21
-213.3283691142547
 31
0.0
  0
LINE
  5
A0
330
47
100
AcDbEntity
  8
0
  6
Continuous
 62
     7
100
AcDbLine
 10
-179.4209247284393
 20
-190.9952509712258
 30
0.0
 11
-179.5941298091962
 21
-190.9452509712258
 31
0.0
  0
LINE
  5
A1
330
47
100
AcDbEntity
  8
0
  6
Continuous
 62
     7
100
AcDbLine
 10
-185.1901071687835
 20
-190.7839240313825
 30
0.0
 11
-185.2454721373671
 21
-190.9745664173381
 31
0.0
  0
LINE
  5
A2
330
47
100
AcDbEntity
  8
0
  6
Continuous
 62
     7
100
AcDbLine
 10
-185.2510757340653
 20
-190.9938617058899
 30
0.0
 11
-184.3555668444556
 21
-191.4923237389143
 31
0.0
  0
LINE
  5
A3
330
47
100
AcDbEntity
  8
0
  6
Continuous
 62
     7
100
AcDbLine
 10
-182.6252187224411
 20
-205.095791726885
 30
0.0
 11
-185.7429101760649
 21
-204.195791726885
 31
0.0
  0
LINE
  5
A4
330
47
100
AcDbEntity
  8
0
  6
Continuous
 62
     7
100
AcDbLine
 10
-184.4438720703884
 20
-214.1836737088933
 30
0.0
 11
-182.6252187224411
 21
-212.6086737088933
 31
0.0
  0
LINE
  5
A5
330
47
100
AcDbEntity
  8
0
  6
Continuous
 62
     7
100
AcDbLine
 10
-184.3555668444556
 20
-191.4923237389143
 30
0.0
 11
-182.9378568790888
 21
-186.6106157328418
 31
0.0
  0
LINE
  5
A6
330
47
100
AcDbEntity
  8
0
  6
Continuous
 62
     7
100
AcDbLine
 10
-182.6252187224411
 20
-209.4324449728598
 30
0.0
 11
-185.5526756162956
 21
-211.9676970114217
 31
0.0
  0
LINE
  5
A7
330
47
100
AcDbEntity
  8
0
  6
Continuous
 62
     7
100
AcDbLine
 10
-184.0453321770988
 20
-185.0703648885048
 30
0.0
 11
-180.9703321770988
 21
-182.4073367718677
 31
0.0
  0
LINE
  5
A8
330
47
100
AcDbEntity
  8
0
  6
Continuous
 62
     7
100
AcDbLine
 10
-168.1838757713511
 20
-186.4737464707609
 30
0.0
 11
-172.080990088381
 21
-185.3487464707609
 31
0.0
  0
LINE
  5
A9
330
47
100
AcDbEntity
  8
0
  6
Continuous
 62
     7
100
AcDbLine
 10
-166.0402224234035
 20
-188.189531400963
 30
0.0
 11
-166.6624614329335
 21
-186.5376632847048
 31
0.0
  0
LINE
  5
AA
330
47
100
AcDbEntity
  8
0
  6
Continuous
 62
     7
100
AcDbLine
 10
-166.0402224234035
 20
-191.913440637239
 30
0.0
 11
-166.0402224234035
 21
-188.189531400963
 31
0.0
  0
LINE
  5
AB
330
47
100
AcDbEntity
  8
0
  6
Continuous
 62
     7
100
AcDbLine
 10
-176.476438355571
 20
-213.539187336026
 30
0.0
 11
-176.476438355571
 21
-212.5865593918464
 31
0.0
  0
LINE
  5
AC
330
47
100
AcDbEntity
  8
0
  6
Continuous
 62
     7
100
AcDbLine
 10
-175.0308988451861
 20
-207.6090238074788
 30
0.0
 11
-176.476438355571
 21
-212.5865593918464
 31
0.0
  0
LINE
  5
AD
330
47
100
AcDbEntity
  8
0
  6
Continuous
 62
     7
100
AcDbLine
 10
-169.1152224234035
 20
-190.8525595176002
 30
0.0
 11
-169.1152224234035
 21
-194.5764687538761
 31
0.0
  0
LINE
  5
AE
330
47
100
AcDbEntity
  8
0
  6
Continuous
 62
     7
100
AcDbLine
 10
-169.7374614329335
 20
-189.2006914013419
 30
0.0
 11
-169.1152224234035
 21
-190.8525595176002
 31
0.0
  0
LINE
  5
AF
330
47
100
AcDbEntity
  8
0
  6
Continuous
 62
     7
100
AcDbLine
 10
-169.1152224234035
 20
-190.8525595176002
 30
0.0
 11
-166.0402224234035
 21
-188.189531400963
 31
0.0
  0
LINE
  5
B0
330
47
100
AcDbEntity
  8
0
  6
Continuous
 62
     7
100
AcDbLine
 10
-166.6624614329335
 20
-186.5376632847048
 30
0.0
 11
-169.7374614329335
 21
-189.2006914013419
 31
0.0
  0
LINE
  5
B1
330
47
100
AcDbEntity
  8
0
  6
Continuous
 62
     7
100
AcDbLine
 10
-168.1838757713511
 20
-186.4737464707609
 30
0.0
 11
-170.6088757713511
 21
-188.5738580749381
 31
0.0
  0
LINE
  5
B2
330
47
100
AcDbEntity
  8
0
  6
Continuous
 62
     7
100
AcDbLine
 10
-137.8848931117971
 20
-204.4397630663195
 30
0.0
 11
-137.8295281432135
 21
-204.6623704317905
 31
0.0
  0
LINE
  5
B3
330
47
100
AcDbEntity
  8
0
  6
Continuous
 62
     7
100
AcDbLine
 10
-137.3320901045156
 20
-204.7474666682211
 30
0.0
 11
-137.8848931117971
 21
-204.4397630663195
 31
0.0
  0
LINE
  5
B4
330
47
100
AcDbEntity
  8
0
  6
Continuous
 62
     7
100
AcDbLine
 10
-138.7194334361243
 20
-204.6663406929509
 30
0.0
 11
-137.8239245465184
 21
-204.6849009583921
 31
0.0
  0
LINE
  5
B5
330
47
100
AcDbEntity
  8
0
  6
Continuous
 62
     7
100
AcDbLine
 10
-174.1235755194276
 20
-207.5500047227922
 30
0.0
 11
-174.6126406933173
 21
-207.408823767894
 31
0.0
  0
LINE
  5
B6
330
47
100
AcDbEntity
  8
0
  6
Continuous
 62
     7
100
AcDbLine
 10
-137.3320901045156
 20
-204.7474666682211
 30
0.0
 11
-137.3320901045156
 21
-208.9909224467741
 31
0.0
  0
LINE
  5
B7
330
47
100
AcDbEntity
  8
0
  6
Continuous
 62
     7
100
AcDbLine
 10
-134.2570901045145
 20
-218.4522499831158
 30
0.0
 11
-134.2570901045145
 21
-216.720199175548
 31
0.0
  0
LINE
  5
B8
330
47
100
AcDbEntity
  8
0
  6
Continuous
 62
     7
100
AcDbLine
 10
-185.742910176065
 20
-215.1077118145699
 30
0.0
 11
-176.7872926777114
 21
-217.6929759012865
 31
0.0
  0
LINE
  5
B9
330
47
100
AcDbEntity
  8
0
  6
Continuous
 62
     7
100
AcDbLine
 10
-173.7122926777114
 20
-215.0299477846493
 30
0.0
 11
-176.7872926777114
 21
-217.6929759012865
 31
0.0
  0
LINE
  5
BA
330
47
100
AcDbEntity
  8
0
  6
Continuous
 62
     7
100
AcDbLine
 10
-175.3506053306518
 20
-214.5570076590549
 30
0.0
 11
-173.9256053306498
 21
-213.3229214586612
 31
0.0
  0
LINE
  5
BB
330
47
100
AcDbEntity
  8
0
  6
Continuous
 62
     7
100
AcDbLine
 10
-134.2570901045145
 20
-218.4522499831158
 30
0.0
 11
-137.3320901045145
 21
-221.1152780997529
 31
0.0
  0
LINE
  5
BC
330
47
100
AcDbEntity
  8
0
  6
Continuous
 62
     7
100
AcDbLine
 10
-162.1870191931282
 20
-192.8525595176039
 30
0.0
 11
-161.5647801835973
 21
-191.5599412609964
 31
0.0
  0
LINE
  5
BD
330
47
100
AcDbEntity
  8
0
  6
Continuous
 62
     7
100
AcDbLine
 10
-175.3506053306518
 20
-214.5570076590549
 30
0.0
 11
-175.3506053306518
 21
-214.1658533858653
 31
0.0
  0
LINE
  5
BE
330
47
100
AcDbEntity
  8
0
  6
Continuous
 62
     7
100
AcDbLine
 10
-175.3506053306518
 20
-214.1658533858653
 30
0.0
 11
-174.2643548680316
 21
-213.2251328903636
 31
0.0
  0
LINE
  5
BF
330
47
100
AcDbEntity
  8
0
  6
Continuous
 62
     7
100
AcDbLine
 10
-157.0419191580313
 20
-189.3148746207889
 30
0.0
 11
-158.4897801835973
 21
-188.8969131443593
 31
0.0
  0
LINE
  5
C0
330
47
100
AcDbEntity
  8
0
  6
Continuous
 62
     7
100
AcDbLine
 10
-162.1870191931282
 20
-196.5764687538769
 30
0.0
 11
-162.1870191931282
 21
-192.8525595176039
 31
0.0
  0
LINE
  5
C1
330
47
100
AcDbEntity
  8
0
  6
Continuous
 62
     7
100
AcDbLine
 10
-173.7053173675587
 20
-208.2158300869918
 30
0.0
 11
-175.0907977095166
 21
-212.986559391863
 31
0.0
  0
LINE
  5
C2
330
47
100
AcDbEntity
  8
0
  6
Continuous
 62
     7
100
AcDbLine
 10
-159.3157998969638
 20
-194.0321494229061
 30
0.0
 11
-160.1169191580313
 21
-191.9779027374261
 31
0.0
  0
LINE
  5
C3
330
47
100
AcDbEntity
  8
0
  6
Continuous
 62
     7
100
AcDbLine
 10
-161.5647801835973
 20
-191.5599412609964
 30
0.0
 11
-160.1169191580313
 21
-191.9779027374261
 31
0.0
  0
LINE
  5
C4
330
47
100
AcDbEntity
  8
0
  6
Continuous
 62
     7
100
AcDbLine
 10
-157.0419191580313
 20
-189.3148746207889
 30
0.0
 11
-160.1169191580313
 21
-191.9779027374261
 31
0.0
  0
LINE
  5
C5
330
47
100
AcDbEntity
  8
0
  6
Continuous
 62
     7
100
AcDbLine
 10
-158.4897801835973
 20
-188.8969131443593
 30
0.0
 11
-161.5647801835973
 21
-191.5599412609964
 31
0.0
  0
LINE
  5
C6
330
47
100
AcDbEntity
  8
0
  6
Continuous
 62
     7
100
AcDbLine
 10
-156.2407998969638
 20
-191.3691213062689
 30
0.0
 11
-157.0419191580313
 21
-189.3148746207889
 31
0.0
  0
LINE
  5
C7
330
47
100
AcDbEntity
  8
0
  6
Continuous
 62
     7
100
AcDbLine
 10
-150.8764169231878
 20
-191.0947018082753
 30
0.0
 11
-153.9514169231878
 21
-193.7577299249125
 31
0.0
  0
LINE
  5
C8
330
47
100
AcDbEntity
  8
0
  6
Continuous
 62
     7
100
AcDbLine
 10
-156.6979733800779
 20
-192.1637938715468
 30
0.0
 11
-156.6979733800779
 21
-191.7650451565824
 31
0.0
  0
LINE
  5
C9
330
47
100
AcDbEntity
  8
0
  6
Continuous
 62
     7
100
AcDbLine
 10
-151.8161245092294
 20
-193.9988580749379
 30
0.0
 11
-149.3911245092295
 21
-191.8987464707607
 31
0.0
  0
LINE
  5
CA
330
47
100
AcDbEntity
  8
0
  6
Continuous
 62
     7
100
AcDbLine
 10
-162.1870191931282
 20
-193.426468753858
 30
0.0
 11
-164.5899992150653
 21
-195.507510497642
 31
0.0
  0
LINE
  5
CB
330
47
100
AcDbEntity
  8
0
  6
Continuous
 62
     7
100
AcDbLine
 10
-163.6372424014657
 20
-192.9823988934741
 30
0.0
 11
-166.0622424014657
 21
-195.0825104976514
 31
0.0
  0
LINE
  5
CC
330
47
100
AcDbEntity
  8
0
  6
Continuous
 62
     7
100
AcDbLine
 10
-166.3652224234035
 20
-192.1948988934689
 30
0.0
 11
-163.6372424014657
 21
-192.9823988934741
 31
0.0
  0
LINE
  5
CD
330
47
100
AcDbEntity
  8
0
  6
Continuous
 62
     7
100
AcDbLine
 10
-166.3652224234035
 20
-192.1948988934689
 30
0.0
 11
-166.0402224234035
 21
-191.913440637239
 31
0.0
  0
LINE
  5
CE
330
47
100
AcDbEntity
  8
0
  6
Continuous
 62
     7
100
AcDbLine
 10
-162.1870191931282
 20
-193.0257645983603
 30
0.0
 11
-166.0402224234035
 21
-191.913440637239
 31
0.0
  0
LINE
  5
CF
330
47
100
AcDbEntity
  8
0
  6
Continuous
 62
     7
100
AcDbLine
 10
-145.4940101921995
 20
-193.0237464707607
 30
0.0
 11
-147.9190101921995
 21
-195.1238580749379
 31
0.0
  0
LINE
  5
D0
330
47
100
AcDbEntity
  8
0
  6
Continuous
 62
     7
100
AcDbLine
 10
-166.3652224234035
 20
-194.9950476990389
 30
0.0
 11
-166.3652224234035
 21
-192.1948988934689
 31
0.0
  0
LINE
  5
D1
330
47
100
AcDbEntity
  8
0
  6
Continuous
 62
     7
100
AcDbLine
 10
-153.2576669231879
 20
-193.1569248010372
 30
0.0
 11
-156.6979733800779
 21
-192.1637938715468
 31
0.0
  0
LINE
  5
D2
330
47
100
AcDbEntity
  8
0
  6
Continuous
 62
     7
100
AcDbLine
 10
-145.4940101921995
 20
-193.0237464707607
 30
0.0
 11
-149.3911245092295
 21
-191.8987464707607
 31
0.0
  0
LINE
  5
D3
330
47
100
AcDbEntity
  8
0
  6
Continuous
 62
     7
100
AcDbLine
 10
-169.1152224234035
 20
-194.5764687538761
 30
0.0
 11
-168.7902224234035
 21
-194.2950104976462
 31
0.0
  0
LINE
  5
D4
330
47
100
AcDbEntity
  8
0
  6
Continuous
 62
     7
100
AcDbLine
 10
-166.0622424014657
 20
-195.0825104976514
 30
0.0
 11
-168.7902224234035
 21
-194.2950104976462
 31
0.0
  0
LINE
  5
D5
330
47
100
AcDbEntity
  8
0
  6
Continuous
 62
     7
100
AcDbLine
 10
-147.9190101921995
 20
-195.1238580749379
 30
0.0
 11
-151.8161245092294
 21
-193.9988580749379
 31
0.0
  0
LINE
  5
D6
330
47
100
AcDbEntity
  8
0
  6
Continuous
 62
     7
100
AcDbLine
 10
-162.1870191931282
 20
-196.2011910789036
 30
0.0
 11
-164.5899992150653
 21
-195.507510497642
 31
0.0
  0
LINE
  5
D7
330
47
100
AcDbEntity
  8
0
  6
Continuous
 62
     7
100
AcDbLine
 10
-169.1152224234035
 20
-194.5764687538761
 30
0.0
 11
-162.1870191931282
 21
-196.5764687538769
 31
0.0
  0
LINE
  5
D8
330
47
100
AcDbEntity
  8
0
  6
Continuous
 62
     7
100
AcDbLine
 10
-159.7729733800779
 20
-193.9001748061349
 30
0.0
 11
-159.3157998969638
 21
-194.0321494229061
 31
0.0
  0
LINE
  5
D9
330
47
100
AcDbEntity
  8
0
  6
Continuous
 62
     7
100
AcDbLine
 10
-159.7729733800779
 20
-194.826821988184
 30
0.0
 11
-159.7729733800779
 21
-193.9001748061349
 31
0.0
  0
LINE
  5
DA
330
47
100
AcDbEntity
  8
0
  6
Continuous
 62
     7
100
AcDbLine
 10
-154.2953627011412
 20
-195.481424806135
 30
0.0
 11
-154.2953627011412
 21
-196.4080719881843
 31
0.0
  0
LINE
  5
DB
330
47
100
AcDbEntity
  8
0
  6
Continuous
 62
     7
100
AcDbLine
 10
-154.7525361842579
 20
-195.3494501893631
 30
0.0
 11
-154.2953627011412
 21
-195.481424806135
 31
0.0
  0
LINE
  5
DC
330
47
100
AcDbEntity
  8
0
  6
Continuous
 62
     7
100
AcDbLine
 10
-154.2953627011412
 20
-196.4080719881843
 30
0.0
 11
-159.7729733800779
 21
-194.826821988184
 31
0.0
  0
LINE
  5
DD
330
47
100
AcDbEntity
  8
0
  6
Continuous
 62
     7
100
AcDbLine
 10
-153.9514169231878
 20
-193.7577299249125
 30
0.0
 11
-154.7525361842579
 21
-195.3494501893631
 31
0.0
  0
LINE
  5
DE
330
47
100
AcDbEntity
  8
0
  6
Continuous
 62
     7
100
AcDbLine
 10
-144.5201009559257
 20
-196.4803163311681
 30
0.0
 11
-153.9514169231878
 21
-193.7577299249125
 31
0.0
  0
LINE
  5
DF
330
47
100
AcDbEntity
  8
0
  6
Continuous
 62
     7
100
AcDbLine
 10
-159.7729733800779
 20
-194.826821988184
 30
0.0
 11
-156.6979733800779
 21
-192.1637938715468
 31
0.0
  0
LINE
  5
E0
330
47
100
AcDbEntity
  8
0
  6
Continuous
 62
     7
100
AcDbLine
 10
-156.2407998969638
 20
-191.3691213062689
 30
0.0
 11
-159.3157998969638
 21
-194.0321494229061
 31
0.0
  0
LINE
  5
E1
330
47
100
AcDbEntity
  8
0
  6
Continuous
 62
     7
100
AcDbLine
 10
-149.3911245092295
 20
-191.8987464707607
 30
0.0
 11
-149.3911245092295
 21
-194.6988952763304
 31
0.0
  0
LINE
  5
E2
330
47
100
AcDbEntity
  8
0
  6
Continuous
 62
     7
100
AcDbLine
 10
-135.7312682789639
 20
-196.3004691271067
 30
0.0
 11
-135.9546681034818
 21
-195.402239657194
 31
0.0
  0
LINE
  5
E3
330
47
100
AcDbEntity
  8
0
  6
Continuous
 62
     7
100
AcDbLine
 10
-139.0296681034818
 20
-198.0652677738311
 30
0.0
 11
-135.9546681034818
 21
-195.402239657194
 31
0.0
  0
LINE
  5
E4
330
47
100
AcDbEntity
  8
0
  6
Continuous
 62
     2
100
AcDbLine
 10
-140.0612552291138
 20
-196.930316331168
 30
0.0
 11
-140.0612552291138
 21
-194.4188426601932
 31
0.0
  0
LINE
  5
E5
330
47
100
AcDbEntity
  8
0
  6
Continuous
 62
     7
100
AcDbLine
 10
-140.5808704713844
 20
-194.2688426601932
 30
0.0
 11
-140.0612552291138
 21
-194.4188426601932
 31
0.0
  0
LINE
  5
E6
330
47
100
AcDbEntity
  8
0
  6
Continuous
 62
     2
100
AcDbLine
 10
-140.5808704713844
 20
-197.0479316175511
 30
0.0
 11
-140.5808704713844
 21
-194.2688426601932
 31
0.0
  0
LINE
  5
E7
330
47
100
AcDbEntity
  8
0
  6
Continuous
 62
     7
100
AcDbLine
 10
-144.3901388341701
 20
-200.0916750684715
 30
0.0
 11
-144.3901388341701
 21
-196.367765832198
 31
0.0
  0
LINE
  5
E8
330
47
100
AcDbEntity
  8
0
  6
Continuous
 62
     7
100
AcDbLine
 10
-144.3901388341701
 20
-196.367765832198
 30
0.0
 11
-144.5201009559257
 21
-196.4803163311681
 31
0.0
  0
LINE
  5
E9
330
47
100
AcDbEntity
  8
0
  6
Continuous
 62
     7
100
AcDbLine
 10
-135.0849130057518
 20
-202.0149091643933
 30
0.0
 11
-135.6444334361244
 21
-202.0033125763137
 31
0.0
  0
LINE
  5
EA
330
47
100
AcDbEntity
  8
0
  6
Continuous
 62
     7
100
AcDbLine
 10
-135.6444334361244
 20
-202.0033125763137
 30
0.0
 11
-136.8268231711441
 21
-197.2492474949751
 31
0.0
  0
LINE
  5
EB
330
47
100
AcDbEntity
  8
0
  6
Continuous
 62
     7
100
AcDbLine
 10
-134.2570901045156
 20
-202.084438551584
 30
0.0
 11
-134.8098931117971
 21
-201.7767349496824
 31
0.0
  0
LINE
  5
EC
330
47
100
AcDbEntity
  8
0
  6
Continuous
 62
     7
100
AcDbLine
 10
-137.3320901045156
 20
-204.7474666682211
 30
0.0
 11
-134.2570901045156
 21
-202.084438551584
 31
0.0
  0
LINE
  5
ED
330
47
100
AcDbEntity
  8
0
  6
Continuous
 62
     7
100
AcDbLine
 10
-138.7194334361243
 20
-204.6663406929509
 30
0.0
 11
-135.6444334361244
 21
-202.0033125763137
 31
0.0
  0
LINE
  5
EE
330
47
100
AcDbEntity
  8
0
  6
Continuous
 62
     7
100
AcDbLine
 10
-134.2570901045156
 20
-206.327894330137
 30
0.0
 11
-134.2570901045156
 21
-202.084438551584
 31
0.0
  0
LINE
  5
EF
330
47
100
AcDbEntity
  8
0
  6
Continuous
 62
     7
100
AcDbLine
 10
-137.3320901045156
 20
-208.9909224467741
 30
0.0
 11
-134.2570901045156
 21
-206.327894330137
 31
0.0
  0
LINE
  5
F0
330
47
100
AcDbEntity
  8
0
  6
Continuous
 62
     7
100
AcDbLine
 10
-137.3320901045145
 20
-219.3832272921851
 30
0.0
 11
-134.2570901045145
 21
-216.720199175548
 31
0.0
  0
LINE
  5
F1
330
47
100
AcDbEntity
  8
0
  6
Continuous
 62
     7
100
AcDbLine
 10
-141.7920626228169
 20
-197.117765832198
 30
0.0
 11
-141.9220247445725
 21
-197.230316331168
 31
0.0
  0
LINE
  5
F2
330
47
100
AcDbEntity
  8
0
  6
Continuous
 62
     7
100
AcDbLine
 10
-144.5201009559257
 20
-200.2042255674416
 30
0.0
 11
-144.5201009559257
 21
-196.4803163311681
 31
0.0
  0
LINE
  5
F3
330
47
100
AcDbEntity
  8
0
  6
Continuous
 62
     7
100
AcDbLine
 10
-139.0296681034818
 20
-198.0652677738311
 30
0.0
 11
-141.9220247445725
 21
-197.230316331168
 31
0.0
  0
LINE
  5
F4
330
47
100
AcDbEntity
  8
0
  6
Continuous
 62
     7
100
AcDbLine
 10
-141.9220247445724
 20
-200.9542255674415
 30
0.0
 11
-141.9220247445725
 21
-197.230316331168
 31
0.0
  0
LINE
  5
F5
330
47
100
AcDbEntity
  8
0
  6
Continuous
 62
     7
100
AcDbLine
 10
-143.463713276212
 20
-199.4509423158612
 30
0.0
 11
-143.463713276212
 21
-198.7328243475569
 31
0.0
  0
LINE
  5
F6
330
47
100
AcDbEntity
  8
0
  6
Continuous
 62
     7
100
AcDbLine
 10
-143.463713276212
 20
-198.7328243475569
 30
0.0
 11
-144.3901388341701
 21
-199.5351324154638
 31
0.0
  0
LINE
  5
F7
330
47
100
AcDbEntity
  8
0
  6
Continuous
 62
     7
100
AcDbLine
 10
-143.0399400151185
 20
-199.4367586990707
 30
0.0
 11
-143.0399400151185
 21
-198.755122851387
 31
0.0
  0
LINE
  5
F8
330
47
100
AcDbEntity
  8
0
  6
Continuous
 62
     7
100
AcDbLine
 10
-139.0296681034818
 20
-198.0652677738311
 30
0.0
 11
-138.8062682789639
 21
-198.9634972437439
 31
0.0
  0
LINE
  5
F9
330
47
100
AcDbEntity
  8
0
  6
Continuous
 62
     7
100
AcDbLine
 10
-138.8062682789639
 20
-198.9634972437439
 30
0.0
 11
-139.1806659465982
 21
-199.2298156142809
 31
0.0
  0
LINE
  5
FA
330
47
100
AcDbEntity
  8
0
  6
Continuous
 62
     7
100
AcDbLine
 10
-139.1806659465982
 20
-199.2298156142809
 30
0.0
 11
-139.2360309151793
 21
-199.0072082488197
 31
0.0
  0
LINE
  5
FB
330
47
100
AcDbEntity
  8
0
  6
Continuous
 62
     7
100
AcDbLine
 10
-142.9612552291137
 20
-201.520250971226
 30
0.0
 11
-143.4808704709388
 21
-201.3702509713547
 31
0.0
  0
LINE
  5
FC
330
47
100
AcDbEntity
  8
0
  6
Continuous
 62
     7
100
AcDbLine
 10
-142.4482101145422
 20
-201.5784137825262
 30
0.0
 11
-142.4482101145422
 21
-199.8229484782983
 31
0.0
  0
LINE
  5
FD
330
47
100
AcDbEntity
  8
0
  6
Continuous
 62
     2
100
AcDbLine
 10
-142.7880501483568
 20
-201.570250971226
 30
0.0
 11
-142.7845977625058
 21
-201.5672611173753
 31
0.0
  0
LINE
  5
FE
330
47
100
AcDbEntity
  8
0
  6
Continuous
 62
     7
100
AcDbLine
 10
-142.7880501483568
 20
-201.570250971226
 30
0.0
 11
-142.9612552291137
 21
-201.520250971226
 31
0.0
  0
LINE
  5
FF
330
47
100
AcDbEntity
  8
0
  6
Continuous
 62
     7
100
AcDbLine
 10
-142.4482101145422
 20
-199.8229484782983
 30
0.0
 11
-143.0399400151185
 21
-199.4367586990707
 31
0.0
  0
LINE
  5
100
330
47
100
AcDbEntity
  8
0
  6
Continuous
 62
     7
100
AcDbLine
 10
-144.3808388468227
 20
-200.2451963584704
 30
0.0
 11
-143.463713276212
 21
-199.4509423158612
 31
0.0
  0
LINE
  5
101
330
47
100
AcDbEntity
  8
0
  6
Continuous
 62
     2
100
AcDbLine
 10
-144.5201009559257
 20
-200.2042255674416
 30
0.0
 11
-144.3901388341701
 21
-200.0916750684715
 31
0.0
  0
LINE
  5
102
330
47
100
AcDbEntity
  8
0
  6
Continuous
 62
     2
100
AcDbLine
 10
-143.6540755521413
 20
-201.320250971226
 30
0.0
 11
-143.65062316629
 21
-201.3172611173754
 31
0.0
  0
LINE
  5
103
330
47
100
AcDbEntity
  8
0
  6
Continuous
 62
     7
100
AcDbLine
 10
-143.6540755521413
 20
-201.320250971226
 30
0.0
 11
-143.4808704709388
 21
-201.3702509713547
 31
0.0
  0
LINE
  5
104
330
47
100
AcDbEntity
  8
0
  6
Continuous
 62
     7
100
AcDbLine
 10
-139.2416345118803
 20
-198.9846777221945
 30
0.0
 11
-140.137143401491
 21
-198.9661174567412
 31
0.0
  0
LINE
  5
105
330
47
100
AcDbEntity
  8
0
  6
Continuous
 62
     7
100
AcDbLine
 10
-137.3320901045145
 20
-221.1152780997529
 30
0.0
 11
-137.3320901045145
 21
-219.3832272921851
 31
0.0
  0
LINE
  5
106
330
47
100
AcDbEntity
  8
0
  6
Continuous
 62
     7
100
AcDbLine
 10
-146.4253568442512
 20
-221.2615593918631
 30
0.0
 11
-146.4253568442512
 21
-222.2141873360259
 31
0.0
  0
LINE
  5
107
330
47
100
AcDbEntity
  8
0
  6
Continuous
 62
     7
100
AcDbLine
 10
-146.4253568442512
 20
-222.2141873360259
 30
0.0
 11
-147.5511898691711
 21
-222.1908533858654
 31
0.0
  0
LINE
  5
108
330
47
100
AcDbEntity
  8
0
  6
Continuous
 62
     7
100
AcDbLine
 10
-147.5511898691711
 20
-222.1908533858654
 30
0.0
 11
-147.5511898691714
 21
-222.582007659054
 31
0.0
  0
LINE
  5
109
330
47
100
AcDbEntity
  8
0
  6
Continuous
 62
     7
100
AcDbLine
 10
-146.1145025221115
 20
-226.5474477278528
 30
0.0
 11
-144.0623049161675
 21
-227.139866147964
 31
0.0
  0
LINE
  5
10A
330
47
100
AcDbEntity
  8
0
  6
Continuous
 62
     7
100
AcDbLine
 10
-144.0623049161675
 20
-227.139866147964
 30
0.0
 11
-137.3320901045145
 21
-221.1152780997529
 31
0.0
  0
LINE
  5
10B
330
47
100
AcDbEntity
  8
0
  6
Continuous
 62
     7
100
AcDbLine
 10
-146.4649394065509
 20
-221.2501328903636
 30
0.0
 11
-147.5511898691711
 21
-222.1908533858654
 31
0.0
  0
LINE
  5
10C
330
47
100
AcDbEntity
  8
0
  6
Continuous
 62
     7
100
AcDbLine
 10
-140.137143401491
 20
-198.9661174567412
 30
0.0
 11
-138.7194334361243
 21
-204.6663406929509
 31
0.0
  0
LINE
  5
10D
330
47
100
AcDbEntity
  8
0
  6
Continuous
 62
     7
100
AcDbLine
 10
-142.4482101145422
 20
-199.8229484782983
 30
0.0
 11
-143.9583793831979
 21
-201.1307934289688
 31
0.0
  0
LINE
  5
10E
330
47
100
AcDbEntity
  8
0
  6
Continuous
 62
     7
100
AcDbLine
 10
-140.9873049161675
 20
-224.4768380313268
 30
0.0
 11
-144.0623049161675
 21
-227.139866147964
 31
0.0
  0
LINE
  5
10F
330
47
100
AcDbEntity
  8
0
  6
Continuous
 62
     7
100
AcDbLine
 10
-140.9873049161675
 20
-224.4768380313268
 30
0.0
 11
-134.2570901045145
 21
-218.4522499831158
 31
0.0
  0
LINE
  5
110
330
47
100
AcDbEntity
  8
0
  6
Continuous
 62
     7
100
AcDbLine
 10
-137.8848931117971
 20
-204.4397630663195
 30
0.0
 11
-134.8098931117971
 21
-201.7767349496824
 31
0.0
  0
LINE
  5
111
330
47
100
AcDbEntity
  8
0
  6
Continuous
 62
     7
100
AcDbLine
 10
-138.8062682789639
 20
-198.9634972437439
 30
0.0
 11
-135.7312682789639
 21
-196.3004691271067
 31
0.0
  0
LINE
  5
112
330
47
100
AcDbEntity
  8
0
  6
Continuous
 62
     7
100
AcDbLine
 10
-135.9546681034818
 20
-195.402239657194
 30
0.0
 11
-150.8764169231878
 21
-191.0947018082753
 31
0.0
  0
LINE
  5
113
330
47
100
AcDbEntity
  8
0
  6
Continuous
 62
     2
100
AcDbLine
 10
-179.4209247284393
 20
-190.9952509712258
 30
0.0
 11
-179.4174723425883
 21
-190.9922611173751
 31
0.0
  0
LINE
  5
114
330
47
100
AcDbEntity
  8
0
  6
Continuous
 62
     2
100
AcDbLine
 10
-176.6941298091963
 20
-186.3553163311678
 30
0.0
 11
-176.6941298091963
 21
-183.843842660193
 31
0.0
  0
LINE
  5
115
330
47
100
AcDbEntity
  8
0
  6
Continuous
 62
     2
100
AcDbLine
 10
-177.2137450514668
 20
-186.4729316175509
 30
0.0
 11
-177.2137450514668
 21
-183.693842660193
 31
0.0
  0
LINE
  5
116
330
47
100
AcDbEntity
  8
0
  6
Continuous
 62
     2
100
AcDbLine
 10
-180.2869501322238
 20
-190.7452509712258
 30
0.0
 11
-180.2834977463727
 21
-190.7422611173751
 31
0.0
  0
LINE
  5
117
330
47
100
AcDbEntity
  8
0
  6
Continuous
 62
     7
100
AcDbLine
 10
-176.6941298091963
 20
-183.843842660193
 30
0.0
 11
-177.2137450514668
 21
-183.693842660193
 31
0.0
  0
LINE
  5
118
330
47
100
AcDbEntity
  8
0
  6
Continuous
 62
     7
100
AcDbLine
 10
-174.5059900883811
 20
-187.4488580749381
 30
0.0
 11
-172.080990088381
 21
-185.3487464707609
 31
0.0
  0
LINE
  5
119
330
47
100
AcDbEntity
  8
0
  6
Continuous
 62
     7
100
AcDbLine
 10
-171.4858000861048
 20
-188.3207118303471
 30
0.0
 11
-172.080990088381
 21
-185.3487464707609
 31
0.0
  0
LINE
  5
11A
330
47
100
AcDbEntity
  8
0
  6
Continuous
 62
     7
100
AcDbLine
 10
-178.4249372028993
 20
-186.5427658321978
 30
0.0
 11
-178.5548993246549
 21
-186.6553163311679
 31
0.0
  0
LINE
  5
11B
330
47
100
AcDbEntity
  8
0
  6
Continuous
 62
     7
100
AcDbLine
 10
-170.6088757713511
 20
-188.5738580749381
 30
0.0
 11
-174.5059900883811
 21
-187.4488580749381
 31
0.0
  0
LINE
  5
11C
330
47
100
AcDbEntity
  8
0
  6
Continuous
 62
     7
100
AcDbLine
 10
-176.476438355571
 20
-213.539187336026
 30
0.0
 11
-174.8396203419786
 21
-212.121661354883
 31
0.0
  0
LINE
  5
11D
330
47
100
AcDbEntity
  8
0
  6
Continuous
 62
     7
100
AcDbLine
 10
-175.3506053306518
 20
-214.1658533858653
 30
0.0
 11
-176.476438355571
 21
-213.539187336026
 31
0.0
  0
LINE
  5
11E
330
47
100
AcDbEntity
  8
0
  6
Continuous
 62
     7
100
AcDbLine
 10
-176.476438355571
 20
-212.5865593918464
 30
0.0
 11
-174.4700050997004
 21
-210.8489372212646
 31
0.0
  0
LINE
  5
11F
330
47
100
AcDbEntity
  8
0
  6
Continuous
 62
     2
100
AcDbLine
 10
-175.0308988451861
 20
-207.6090238074788
 30
0.0
 11
-174.7833143057713
 21
-207.3946093067613
 31
0.0
  0
LINE
  5
120
330
47
100
AcDbEntity
  8
0
  6
Continuous
 62
     7
100
AcDbLine
 10
-178.5548993246549
 20
-190.3792255674413
 30
0.0
 11
-178.5548993246549
 21
-186.6553163311679
 31
0.0
  0
LINE
  5
121
330
47
100
AcDbEntity
  8
0
  6
Continuous
 62
     7
100
AcDbLine
 10
-178.5548993246549
 20
-186.6553163311679
 30
0.0
 11
-169.7374614329335
 21
-189.2006914013419
 31
0.0
  0
LINE
  5
122
330
47
100
AcDbEntity
  8
0
  6
Continuous
 62
     7
100
AcDbLine
 10
-166.6624614329335
 20
-186.5376632847048
 30
0.0
 11
-180.9703321770988
 21
-182.4073367718677
 31
0.0
  0
LINE
  5
123
330
47
100
AcDbEntity
  8
0
  6
Continuous
 62
     7
100
AcDbLine
 10
-175.0907977095166
 20
-212.986559391863
 30
0.0
 11
-146.4253568442512
 21
-221.2615593918631
 31
0.0
  0
SPLINE
  5
124
330
47
100
AcDbEntity
  8
0
  6
Continuous
 62
     7
100
AcDbSpline
210
0.0
220
0.0
230
1.0
 70
     8
 71
     3
 72
    11
 73
     7
 74
     5
 42
0.000000001
 43
0.0000000001
 44
0.00000001
 40
0.0
 40
0.0
 40
0.0
 40
0.0
 40
0.2267504305081378
 40
0.4687516095114185
 40
0.7374139245195723
 40
1.039009610301099
 40
1.039009610301099
 40
1.039009610301099
 40
1.039009610301099
 10
-181.5637450514668
 20
-184.9495794956804
 30
0.0
 10
-181.556657129228
 20
-185.0254388172187
 30
0.0
 10
-181.5420045517004
 20
-185.1822595934031
 30
0.0
 10
-181.4277382687628
 20
-185.4053047860878
 30
0.0
 10
-181.2550282843364
 20
-185.6161060255892
 30
0.0
 10
-181.1032730813907
 20
-185.7316548532689
 30
0.0
 10
-181.0230134142526
 20
-185.7927658321978
 30
0.0
 11
-181.5637450514668
 21
-184.9495794956804
 31
0.0
 11
-181.5289134134736
 21
-185.1736386749413
 31
0.0
 11
-181.4252553494812
 21
-185.3923155553031
 31
0.0
 11
-181.2552607840991
 21
-185.6003571100404
 31
0.0
 11
-181.0230134142526
 21
-185.7927658321978
 31
0.0
  0
SPLINE
  5
125
330
47
100
AcDbEntity
  8
0
  6
Continuous
 62
     7
100
AcDbSpline
210
0.0
220
0.0
230
1.0
 70
     8
 71
     3
 72
    11
 73
     7
 74
     5
 42
0.000000001
 43
0.0000000001
 44
0.00000001
 40
0.0
 40
0.0
 40
0.0
 40
0.0
 40
0.550537133543406
 40
1.17932301268266
 40
1.864432848881679
 40
2.576762970880914
 40
2.576762970880914
 40
2.576762970880914
 40
2.576762970880914
 10
-181.0230134142526
 20
-188.696327799221
 30
0.0
 10
-180.86467229734
 20
-188.6023913025664
 30
0.0
 10
-180.5254847736465
 20
-188.4011669745651
 30
0.0
 10
-179.9257203233257
 20
-188.2211776751593
 30
0.0
 10
-179.2592834792862
 20
-188.1014801127617
 30
0.0
 10
-178.7927233681949
 20
-188.0942309821297
 30
0.0
 10
-178.5548993246549
 20
-188.0905358226023
 30
0.0
 11
-181.0230134142526
 21
-188.696327799221
 31
0.0
 11
-180.5392325650233
 21
-188.4335594091868
 31
0.0
 11
-179.9416669696847
 21
-188.237888654759
 31
0.0
 11
-179.2665696578201
 21
-188.1211877156037
 31
0.0
 11
-178.5548993246549
 21
-188.0905358226023
 31
0.0
  0
SPLINE
  5
126
330
47
100
AcDbEntity
  8
0
  6
Continuous
 62
     7
100
AcDbSpline
210
0.0
220
0.0
230
1.0
 70
     8
 71
     3
 72
    17
 73
    13
 74
    11
 42
0.000000001
 43
0.0000000001
 44
0.00000001
 40
0.0
 40
0.0
 40
0.0
 40
0.0
 40
0.181256000243896
 40
0.3732348639542525
 40
0.4637602097513321
 40
0.5719026220335981
 40
0.670991450638245
 40
0.7705994953461964
 40
0.9669681855708506
 40
1.1566290971819
 40
1.342108028937052
 40
1.515804953347647
 40
1.515804953347647
 40
1.515804953347647
 40
1.515804953347647
 10
-181.0230134142526
 20
-189.5166750684712
 30
0.0
 10
-181.02036325744
 20
-189.5771169108962
 30
0.0
 10
-181.0149061491712
 20
-189.7015762535285
 30
0.0
 10
-180.9827738364859
 20
-189.853485865852
 30
0.0
 10
-180.9464056615993
 20
-189.9785159336407
 30
0.0
 10
-180.9127648446485
 20
-190.0719908950912
 30
0.0
 10
-180.8719915619044
 20
-190.165869071832
 30
0.0
 10
-180.8117064454792
 20
-190.2830141370601
 30
0.0
 10
-180.7229171085225
 20
-190.4192549258597
 30
0.0
 10
-180.5940939509072
 20
-190.5603544840758
 30
0.0
 10
-180.4482803356284
 20
-190.6741513943499
 30
0.0
 10
-180.3372108108692
 20
-190.7200598574606
 30
0.0
 10
-180.2834977463727
 20
-190.7422611173751
 30
0.0
 11
-181.0230134142526
 21
-189.5166750684712
 31
0.0
 11
-181.0102510583105
 21
-189.6974812051234
 31
0.0
 11
-180.9726380868859
 21
-189.8857393995067
 31
0.0
 11
-180.9472255972053
 21
-189.9726246313912
 31
0.0
 11
-180.9106189096058
 21
-190.0743828337257
 31
0.0
 11
-180.8710864158199
 21
-190.16524414534
 31
0.0
 11
-180.8254581193044
 21
-190.2537869104338
 31
0.0
 11
-180.7174375419688
 21
-190.4177753803877
 31
0.0
 11
-180.5892900464658
 21
-190.5575948431273
 31
0.0
 11
-180.4409781856192
 21
-190.6689771919052
 31
0.0
 11
-180.2834977463727
 21
-190.7422611173751
 31
0.0
  0
SPLINE
  5
127
330
47
100
AcDbEntity
  8
0
  6
Continuous
 62
     7
100
AcDbSpline
210
0.0
220
0.0
230
1.0
 70
     8
 71
     3
 72
     9
 73
     5
 74
     3
 42
0.000000001
 43
0.0000000001
 44
0.00000001
 40
0.0
 40
0.0
 40
0.0
 40
0.0
 40
0.0101694867305342
 40
0.020116081710836
 40
0.020116081710836
 40
0.020116081710836
 40
0.020116081710836
 10
-183.8333657687002
 20
-186.1121536998163
 30
0.0
 10
-183.8340745590626
 20
-186.1154737405649
 30
0.0
 10
-183.8354766240262
 20
-186.1220410492861
 30
0.0
 10
-183.837813743984
 20
-186.1283362615728
 30
0.0
 10
-183.8389693654012
 20
-186.1314489883777
 30
0.0
 11
-183.8333657687002
 21
-186.1121536998163
 31
0.0
 11
-183.8357311224745
 21
-186.1220442797655
 31
0.0
 11
-183.8389693654012
 21
-186.1314489883777
 31
0.0
  0
SPLINE
  5
128
330
47
100
AcDbEntity
  8
0
  6
Continuous
 62
     7
100
AcDbSpline
210
0.0
220
0.0
230
1.0
 70
     8
 71
     3
 72
    13
 73
     9
 74
     7
 42
0.000000001
 43
0.0000000001
 44
0.00000001
 40
0.0
 40
0.0
 40
0.0
 40
0.0
 40
0.2431393364645286
 40
0.4984426510335264
 40
0.7592948545268021
 40
1.018025409106944
 40
1.267360558732805
 40
1.501886888578798
 40
1.501886888578798
 40
1.501886888578798
 40
1.501886888578798
 10
-180.2869501322238
 20
-190.7452509712258
 30
0.0
 10
-180.3633137227089
 20
-190.7171250663886
 30
0.0
 10
-180.5198612795051
 20
-190.6594661367745
 30
0.0
 10
-180.7266651472703
 20
-190.5086600705306
 30
0.0
 10
-180.9058619903091
 20
-190.3207832596456
 30
0.0
 10
-181.0424009486534
 20
-190.1023677556727
 30
0.0
 10
-181.1341410220175
 20
-189.8690719260451
 30
0.0
 10
-181.1468267874652
 20
-189.7075262929305
 30
0.0
 10
-181.1529755360082
 20
-189.6292255674413
 30
0.0
 11
-180.2869501322238
 21
-190.7452509712258
 31
0.0
 11
-180.5110939405077
 21
-190.6510369041341
 31
0.0
 11
-180.719962834116
 21
-190.5042255674414
 31
0.0
 11
-180.8993224046575
 21
-190.3148211917082
 31
0.0
 11
-181.0369501322238
 21
-190.0957319183875
 31
0.0
 11
-181.1234662129415
 21
-189.8618879835334
 31
0.0
 11
-181.1529755360082
 21
-189.6292255674413
 31
0.0
  0
SPLINE
  5
129
330
47
100
AcDbEntity
  8
0
  6
Continuous
 62
     7
100
AcDbSpline
210
0.0
220
0.0
230
1.0
 70
     8
 71
     3
 72
    11
 73
     7
 74
     5
 42
0.000000001
 43
0.0000000001
 44
0.00000001
 40
0.0
 40
0.0
 40
0.0
 40
0.0
 40
0.1340578103041814
 40
0.2712905770934113
 40
0.4142835042396585
 40
0.5646514904339056
 40
0.5646514904339056
 40
0.5646514904339056
 40
0.5646514904339056
 10
-178.7662710577313
 20
-190.8851545134598
 30
0.0
 10
-178.734443014579
 20
-190.8534691935829
 30
0.0
 10
-178.6700331402955
 20
-190.7893481251138
 30
0.0
 10
-178.6045244844938
 20
-190.6658549607905
 30
0.0
 10
-178.5622298505396
 20
-190.5274835492246
 30
0.0
 10
-178.5573834410237
 20
-190.4294662761699
 30
0.0
 10
-178.5548993246549
 20
-190.3792255674413
 30
0.0
 11
-178.7662710577313
 21
-190.8851545134598
 31
0.0
 11
-178.6760397886722
 21
-190.786009089916
 31
0.0
 11
-178.6094610171393
 21
-190.6660086727871
 31
0.0
 11
-178.5686489190234
 21
-190.528963605628
 31
0.0
 11
-178.5548993246549
 21
-190.3792255674413
 31
0.0
  0
SPLINE
  5
12A
330
47
100
AcDbEntity
  8
0
  6
Continuous
 62
     7
100
AcDbSpline
210
0.0
220
0.0
230
1.0
 70
     8
 71
     3
 72
    11
 73
     7
 74
     5
 42
0.000000001
 43
0.0000000001
 44
0.00000001
 40
0.0
 40
0.0
 40
0.0
 40
0.0
 40
0.1206520291162822
 40
0.2441615189900151
 40
0.3728551532218126
 40
0.5081863407455594
 40
0.5081863407455594
 40
0.5081863407455594
 40
0.5081863407455594
 10
-185.5526756162956
 20
-211.9676970114217
 30
0.0
 10
-185.5813208550953
 20
-211.9962137992736
 30
0.0
 10
-185.6392897407482
 20
-212.0539227617864
 30
0.0
 10
-185.6982475314766
 20
-212.1650666090729
 30
0.0
 10
-185.736312701315
 20
-212.2896008794924
 30
0.0
 10
-185.7406744713337
 20
-212.3778164249994
 30
0.0
 10
-185.742910176065
 20
-212.4230330628381
 30
0.0
 11
-185.5526756162956
 21
-211.9676970114217
 31
0.0
 11
-185.6338837584487
 21
-212.0569278926111
 31
0.0
 11
-185.6938046528284
 21
-212.1649282680272
 31
0.0
 11
-185.7305355411328
 21
-212.2882688284703
 31
0.0
 11
-185.742910176065
 21
-212.4230330628381
 31
0.0
  0
SPLINE
  5
12B
330
47
100
AcDbEntity
  8
0
  6
Continuous
 62
     7
100
AcDbSpline
210
0.0
220
0.0
230
1.0
 70
     8
 71
     3
 72
     9
 73
     5
 74
     3
 42
0.000000001
 43
0.0000000001
 44
0.00000001
 40
0.0
 40
0.0
 40
0.0
 40
0.0
 40
0.0431231433507077
 40
0.0861115098986995
 40
0.0861115098986995
 40
0.0861115098986995
 40
0.0861115098986995
 10
-184.4438720703884
 20
-213.3789805647695
 30
0.0
 10
-184.4317222181848
 20
-213.3712690967703
 30
0.0
 10
-184.4074604982547
 20
-213.3558702457545
 30
0.0
 10
-184.3853412948394
 20
-213.3375265932331
 30
0.0
 10
-184.3742990090214
 20
-213.3283691142547
 30
0.0
 11
-184.4438720703884
 21
-213.3789805647695
 31
0.0
 11
-184.40795982643
 21
-213.3551076457441
 31
0.0
 11
-184.3742990090214
 21
-213.3283691142547
 31
0.0
  0
SPLINE
  5
12C
330
47
100
AcDbEntity
  8
0
  6
Continuous
 62
     7
100
AcDbSpline
210
0.0
220
0.0
230
1.0
 70
     8
 71
     3
 72
    17
 73
    13
 74
    11
 42
0.000000001
 43
0.0000000001
 44
0.00000001
 40
0.0
 40
0.0
 40
0.0
 40
0.0
 40
0.2131868451801597
 40
0.4406714182615531
 40
0.6895572016060736
 40
0.9581437233565329
 40
1.238214278488549
 40
1.518284833620582
 40
1.786871355371101
 40
2.035757138715642
 40
2.263241711797023
 40
2.47642855697717
 40
2.47642855697717
 40
2.47642855697717
 40
2.47642855697717
 10
-184.3742990090214
 20
-213.3283691142547
 30
0.0
 10
-184.3262379001602
 20
-213.2746822311202
 30
0.0
 10
-184.2268923958431
 20
-213.1637078572596
 30
0.0
 10
-184.1740291231255
 20
-212.9312890875404
 30
0.0
 10
-184.1939676506378
 20
-212.6815476524689
 30
0.0
 10
-184.2881273248224
 20
-212.4293333793441
 30
0.0
 10
-184.44501547884
 20
-212.1990232836048
 30
0.0
 10
-184.6505507638755
 20
-212.010842839148
 30
0.0
 10
-184.8867267735329
 20
-211.881618320295
 30
0.0
 10
-185.131058329202
 20
-211.8262069480393
 30
0.0
 10
-185.3686451497537
 20
-211.8453253376229
 30
0.0
 10
-185.4926735097218
 20
-211.9277984047748
 30
0.0
 10
-185.5526756162956
 20
-211.9676970114217
 30
0.0
 11
-184.3742990090214
 21
-213.3283691142547
 31
0.0
 11
-184.2454599576776
 21
-213.1585187922164
 31
0.0
 11
-184.18690533891
 21
-212.9386993435442
 31
0.0
 11
-184.2043691509197
 21
-212.6904270138035
 31
0.0
 11
-184.2961395877201
 21
-212.4380049329877
 31
0.0
 11
-184.4532356804685
 21
-212.2061421870392
 31
0.0
 11
-184.6602779851416
 21
-212.0175341294403
 31
0.0
 11
-184.897000990699
 21
-211.8906446555117
 31
0.0
 11
-185.1402320399687
 21
-211.8378924885805
 31
0.0
 11
-185.3661618161309
 21
-211.8644437528978
 31
0.0
 11
-185.5526756162956
 21
-211.9676970114217
 31
0.0
  0
SPLINE
  5
12D
330
47
100
AcDbEntity
  8
0
  6
Continuous
 62
     7
100
AcDbSpline
210
0.0
220
0.0
230
1.0
 70
     8
 71
     3
 72
    11
 73
     7
 74
     5
 42
0.000000001
 43
0.0000000001
 44
0.00000001
 40
0.0
 40
0.0
 40
0.0
 40
0.0
 40
0.1871411907843302
 40
0.3630362754382167
 40
0.5295381944253178
 40
0.6906435563658122
 40
0.6906435563658122
 40
0.6906435563658122
 40
0.6906435563658122
 10
-179.4209247284393
 20
-190.9952509712258
 30
0.0
 10
-179.3598641138083
 20
-191.0093317718861
 30
0.0
 10
-179.2414122729686
 20
-191.0366471839153
 30
0.0
 10
-179.0633477199237
 20
-191.0277001989432
 30
0.0
 10
-178.8988732434326
 20
-190.9817709760814
 30
0.0
 10
-178.809983701914
 20
-190.9170043794767
 30
0.0
 10
-178.7662710577313
 20
-190.8851545134598
 30
0.0
 11
-179.4209247284393
 21
-190.9952509712258
 31
0.0
 11
-179.2367798461552
 21
-191.0286049477871
 31
0.0
 11
-179.0610568728527
 21
-191.0208255993967
 31
0.0
 11
-178.901792652223
 21
-190.9722684372028
 31
0.0
 11
-178.7662710577313
 21
-190.8851545134598
 31
0.0
  0
SPLINE
  5
12E
330
47
100
AcDbEntity
  8
0
  6
Continuous
 62
     7
100
AcDbSpline
210
0.0
220
0.0
230
1.0
 70
     8
 71
     3
 72
     9
 73
     5
 74
     3
 42
0.000000001
 43
0.0000000001
 44
0.00000001
 40
0.0
 40
0.0
 40
0.0
 40
0.0
 40
0.0101694867253723
 40
0.0201160817007611
 40
0.0201160817007611
 40
0.0201160817007611
 40
0.0201160817007611
 10
-185.2454721373671
 20
-190.9745664173381
 30
0.0
 10
-185.2461809277293
 20
-190.9778864580848
 30
0.0
 10
-185.2475829926928
 20
-190.9844537668027
 30
0.0
 10
-185.2499201126491
 20
-190.9907489790865
 30
0.0
 10
-185.2510757340653
 20
-190.9938617058899
 30
0.0
 11
-185.2454721373671
 21
-190.9745664173381
 31
0.0
 11
-185.2478374911407
 21
-190.9844569972822
 31
0.0
 11
-185.2510757340653
 21
-190.9938617058899
 31
0.0
  0
SPLINE
  5
12F
330
47
100
AcDbEntity
  8
0
  6
Continuous
 62
     7
100
AcDbSpline
210
0.0
220
0.0
230
1.0
 70
     8
 71
     3
 72
    11
 73
     7
 74
     5
 42
0.000000001
 43
0.0000000001
 44
0.00000001
 40
0.0
 40
0.0
 40
0.0
 40
0.0
 40
1.851422095563193
 40
3.78524084066144
 40
5.805674702652564
 40
7.90893534036063
 40
7.90893534036063
 40
7.90893534036063
 40
7.90893534036063
 10
-185.7429101760649
 20
-202.8101510808317
 30
0.0
 10
-185.5720684839307
 20
-202.2154349864518
 30
0.0
 10
-185.2227818869744
 20
-200.999535240559
 30
0.0
 10
-185.1014486218654
 20
-199.0558921985771
 30
0.0
 10
-185.2394096272308
 20
-197.0335439851909
 30
0.0
 10
-185.5728442461599
 20
-195.697408640852
 30
0.0
 10
-185.7429101760649
 20
-195.0159224467718
 30
0.0
 11
-185.7429101760649
 21
-202.8101510808317
 31
0.0
 11
-185.295021138683
 21
-201.0137215135334
 31
0.0
 11
-185.1445628506921
 21
-199.0857647584883
 31
0.0
 11
-185.295021138683
 21
-197.0709408703697
 31
0.0
 11
-185.7429101760649
 21
-195.0159224467718
 31
0.0
  0
SPLINE
  5
130
330
47
100
AcDbEntity
  8
0
  6
Continuous
 62
     7
100
AcDbSpline
210
0.0
220
0.0
230
1.0
 70
     8
 71
     3
 72
    15
 73
    11
 74
     9
 42
0.000000001
 43
0.0000000001
 44
0.00000001
 40
0.0
 40
0.0
 40
0.0
 40
0.0
 40
0.7142676959366923
 40
1.46646715090834
 40
2.218666605603487
 40
2.932934292283494
 40
3.576230762043002
 40
4.126302543945235
 40
4.580429156803351
 40
4.968508124450689
 40
4.968508124450689
 40
4.968508124450689
 40
4.968508124450689
 10
-177.2137450514668
 20
-183.693842660193
 30
0.0
 10
-177.4457790839278
 20
-183.6387344368982
 30
0.0
 10
-177.9221695033636
 20
-183.5255914297292
 30
0.0
 10
-178.6641075861999
 20
-183.4849549682822
 30
0.0
 10
-179.403907079064
 20
-183.5305906974276
 30
0.0
 10
-180.0951718546409
 20
-183.6703160168394
 30
0.0
 10
-180.6964503531093
 20
-183.8922201502152
 30
0.0
 10
-181.1611922649887
 20
-184.1846326476431
 30
0.0
 10
-181.4936920579979
 20
-184.5376419602147
 30
0.0
 10
-181.5416476524317
 20
-184.8196385842259
 30
0.0
 10
-181.5637450514668
 20
-184.9495794956804
 30
0.0
 11
-177.2137450514668
 21
-183.693842660193
 31
0.0
 11
-177.9131700207772
 21
-183.5489874209673
 31
0.0
 11
-178.6637450514668
 21
-183.4995794956804
 31
0.0
 11
-179.4143200821565
 21
-183.5489874209673
 31
0.0
 11
-180.1137450514669
 21
-183.693842660193
 31
0.0
 11
-180.7143541702034
 21
-183.9242749363121
 31
0.0
 11
-181.1752187224417
 21
-184.2245794956804
 31
0.0
 11
-181.4649292008931
 21
-184.5742919803356
 31
0.0
 11
-181.5637450514668
 21
-184.9495794956804
 31
0.0
  0
SPLINE
  5
131
330
47
100
AcDbEntity
  8
0
  6
Continuous
 62
     7
100
AcDbSpline
210
0.0
220
0.0
230
1.0
 70
     8
 71
     3
 72
     9
 73
     5
 74
     3
 42
0.000000001
 43
0.0000000001
 44
0.00000001
 40
0.0
 40
0.0
 40
0.0
 40
0.0
 40
0.0115020573961129
 40
0.0232322003030483
 40
0.0232322003030483
 40
0.0232322003030483
 40
0.0232322003030483
 10
-137.8295281432135
 20
-204.6623704317905
 30
0.0
 10
-137.8288065229736
 20
-204.6661391005335
 30
0.0
 10
-137.8273489533064
 20
-204.6737511661706
 30
0.0
 10
-137.8250734685789
 20
-204.6811601165717
 30
0.0
 10
-137.8239245465184
 20
-204.6849009583921
 30
0.0
 11
-137.8295281432135
 21
-204.6623704317905
 31
0.0
 11
-137.8271627894403
 21
-204.6736266493708
 31
0.0
 11
-137.8239245465184
 21
-204.6849009583921
 31
0.0
  0
SPLINE
  5
132
330
47
100
AcDbEntity
  8
0
  6
Continuous
 62
     7
100
AcDbSpline
210
0.0
220
0.0
230
1.0
 70
     8
 71
     3
 72
    11
 73
     7
 74
     5
 42
0.000000001
 43
0.0000000001
 44
0.00000001
 40
0.0
 40
0.0
 40
0.0
 40
0.0
 40
0.0805526799810447
 40
0.163803638053094
 40
0.2517511792397775
 40
0.3453217744506595
 40
0.3453217744506595
 40
0.3453217744506595
 40
0.3453217744506595
 10
-174.9399675286713
 20
-207.463871996777
 30
0.0
 10
-174.9181112068484
 20
-207.4479470639642
 30
0.0
 10
-174.8736664328444
 20
-207.4155637723952
 30
0.0
 10
-174.7914291973276
 20
-207.3925991579318
 30
0.0
 10
-174.7023969217212
 20
-207.3881256688574
 30
0.0
 10
-174.6431710005737
 20
-207.4017833675775
 30
0.0
 10
-174.6126406933173
 20
-207.408823767894
 30
0.0
 11
-174.9399675286713
 21
-207.463871996777
 31
0.0
 11
-174.8722067314255
 21
-207.4203150349055
 31
0.0
 11
-174.7925746211106
 21
-207.3960364538085
 31
0.0
 11
-174.7047131344593
 21
-207.3921467796133
 31
0.0
 11
-174.6126406933173
 21
-207.408823767894
 31
0.0
  0
SPLINE
  5
133
330
47
100
AcDbEntity
  8
0
  6
Continuous
 62
     7
100
AcDbSpline
210
0.0
220
0.0
230
1.0
 70
     8
 71
     3
 72
    11
 73
     7
 74
     5
 42
0.000000001
 43
0.0000000001
 44
0.00000001
 40
0.0
 40
0.0
 40
0.0
 40
0.0
 40
0.8440176141073009
 40
1.703424486573884
 40
2.585246614932305
 40
3.494813282882001
 40
3.494813282882001
 40
3.494813282882001
 40
3.494813282882001
 10
-176.7872926777114
 20
-217.6929759012865
 30
0.0
 10
-176.6085816127763
 20
-217.474905104922
 30
0.0
 10
-176.2479009956185
 20
-217.034787344683
 30
0.0
 10
-175.8395888998404
 20
-216.2708705630425
 30
0.0
 10
-175.5228181734096
 20
-215.4422993042755
 30
0.0
 10
-175.4085992703969
 20
-214.8551361493863
 30
0.0
 10
-175.3506053306518
 20
-214.5570076590549
 30
0.0
 11
-176.7872926777114
 21
-217.6929759012865
 31
0.0
 11
-176.2736581186303
 21
-217.0232406743396
 31
0.0
 11
-175.8594339125329
 21
-216.2702476583115
 31
0.0
 11
-175.5503295101743
 21
-215.4443755514175
 31
0.0
 11
-175.3506053306518
 21
-214.5570076590549
 31
0.0
  0
SPLINE
  5
134
330
47
100
AcDbEntity
  8
0
  6
Continuous
 62
     7
100
AcDbSpline
210
0.0
220
0.0
230
1.0
 70
     8
 71
     3
 72
     9
 73
     5
 74
     3
 42
0.000000001
 43
0.0000000001
 44
0.00000001
 40
0.0
 40
0.0
 40
0.0
 40
0.0
 40
0.822617696668736
 40
1.659675246007077
 40
1.659675246007077
 40
1.659675246007077
 40
1.659675246007077
 10
-173.7122926777114
 20
-215.0299477846493
 30
0.0
 10
-173.5366286733172
 20
-214.8182003830732
 30
0.0
 10
-173.1822171555978
 20
-214.3909886518647
 30
0.0
 10
-172.9300371244284
 20
-213.896452430456
 30
0.0
 10
-172.8028500827758
 20
-213.6470329809582
 30
0.0
 11
-173.7122926777114
 21
-215.0299477846493
 31
0.0
 11
-173.2104157506841
 21
-214.3781660526226
 31
0.0
 11
-172.8028500827758
 21
-213.6470329809582
 31
0.0
  0
SPLINE
  5
135
330
47
100
AcDbEntity
  8
0
  6
Continuous
 62
     7
100
AcDbSpline
210
0.0
220
0.0
230
1.0
 70
     8
 71
     3
 72
    13
 73
     9
 74
     7
 42
0.000000001
 43
0.0000000001
 44
0.00000001
 40
0.0
 40
0.0
 40
0.0
 40
0.0
 40
0.1423925800226953
 40
0.2923741037872007
 40
0.4444147580842721
 40
0.5924566025230579
 40
0.7314836141249133
 40
0.8591114718785509
 40
0.8591114718785509
 40
0.8591114718785509
 40
0.8591114718785509
 10
-174.1235755194276
 20
-207.5500047227922
 30
0.0
 10
-174.078999812297
 20
-207.5670441050934
 30
0.0
 10
-173.9874727006771
 20
-207.602031012828
 30
0.0
 10
-173.8708930504623
 20
-207.6969402721985
 30
0.0
 10
-173.7756516940658
 20
-207.8142705622041
 30
0.0
 10
-173.7125876006417
 20
-207.9473976371053
 30
0.0
 10
-173.6822735093131
 20
-208.0853408439739
 30
0.0
 10
-173.6978581512919
 20
-208.173591203074
 30
0.0
 10
-173.7053173675587
 20
-208.2158300869918
 30
0.0
 11
-174.1235755194276
 21
-207.5500047227922
 31
0.0
 11
-173.9933661762769
 21
-207.6076343483882
 31
0.0
 11
-173.8752096369815
 21
-207.7000112392702
 31
0.0
 11
-173.7800436770221
 21
-207.8185852716207
 31
0.0
 11
-173.7166766787528
 21
-207.9523799359198
 31
0.0
 11
-173.6909752406087
 21
-208.0890106323227
 31
0.0
 11
-173.7053173675587
 21
-208.2158300869918
 31
0.0
  0
SPLINE
  5
136
330
47
100
AcDbEntity
  8
0
  6
Continuous
 62
     7
100
AcDbSpline
210
0.0
220
0.0
230
1.0
 70
     8
 71
     3
 72
     9
 73
     5
 74
     3
 42
0.000000001
 43
0.0000000001
 44
0.00000001
 40
0.0
 40
0.0
 40
0.0
 40
0.0
 40
0.0881160148270892
 40
0.1730887211054875
 40
0.1730887211054875
 40
0.1730887211054875
 40
0.1730887211054875
 10
-175.0308988451861
 20
-207.6090238074788
 30
0.0
 10
-175.0208082483928
 20
-207.5810276313944
 30
0.0
 10
-175.0009869931704
 20
-207.5260339789236
 30
0.0
 10
-174.960059606857
 20
-207.4843402663295
 30
0.0
 10
-174.9399675286713
 20
-207.463871996777
 30
0.0
 11
-175.0308988451861
 21
-207.6090238074788
 31
0.0
 11
-174.9951571280004
 21
-207.5284821289786
 31
0.0
 11
-174.9399675286713
 21
-207.463871996777
 31
0.0
  0
SPLINE
  5
137
330
47
100
AcDbEntity
  8
0
  6
Continuous
 62
     7
100
AcDbSpline
210
0.0
220
0.0
230
1.0
 70
     8
 71
     3
 72
    15
 73
    11
 74
     9
 42
0.000000001
 43
0.0000000001
 44
0.00000001
 40
0.0
 40
0.0
 40
0.0
 40
0.0
 40
0.7142676959365972
 40
1.466467150908275
 40
2.218666605603452
 40
2.932934292283381
 40
3.576230762042873
 40
4.126302543945083
 40
4.580429156803217
 40
4.968508124450651
 40
4.968508124450651
 40
4.968508124450651
 40
4.968508124450651
 10
-140.5808704713844
 20
-194.2688426601932
 30
0.0
 10
-140.8129045038454
 20
-194.2137344368985
 30
0.0
 10
-141.2892949232812
 20
-194.1005914297295
 30
0.0
 10
-142.0312330061174
 20
-194.0599549682824
 30
0.0
 10
-142.7710324989815
 20
-194.1055906974279
 30
0.0
 10
-143.4622972745584
 20
-194.2453160168396
 30
0.0
 10
-144.0635757730268
 20
-194.4672201502156
 30
0.0
 10
-144.5283176849062
 20
-194.7596326476433
 30
0.0
 10
-144.8608174779154
 20
-195.1126419602149
 30
0.0
 10
-144.9087730723492
 20
-195.3946385842262
 30
0.0
 10
-144.9308704713844
 20
-195.5245794956807
 30
0.0
 11
-140.5808704713844
 21
-194.2688426601932
 31
0.0
 11
-141.2802954406948
 21
-194.1239874209675
 31
0.0
 11
-142.0308704713844
 21
-194.0745794956806
 31
0.0
 11
-142.781445502074
 21
-194.1239874209675
 31
0.0
 11
-143.4808704713843
 21
-194.2688426601932
 31
0.0
 11
-144.0814795901209
 21
-194.4992749363124
 31
0.0
 11
-144.5423441423592
 21
-194.7995794956806
 31
0.0
 11
-144.8320546208106
 21
-195.1492919803358
 31
0.0
 11
-144.9308704713844
 21
-195.5245794956807
 31
0.0
  0
SPLINE
  5
138
330
47
100
AcDbEntity
  8
0
  6
Continuous
 62
     7
100
AcDbSpline
210
0.0
220
0.0
230
1.0
 70
     8
 71
     3
 72
    15
 73
    11
 74
     9
 42
0.000000001
 43
0.0000000001
 44
0.00000001
 40
0.0
 40
0.0
 40
0.0
 40
0.0
 40
0.3065984663031089
 40
0.6484981671381689
 40
1.04694366064338
 40
1.50783359331461
 40
2.026180966965907
 40
2.590017198295401
 40
3.183032729144177
 40
3.786496287928342
 40
3.786496287928342
 40
3.786496287928342
 40
3.786496287928342
 10
-138.6112552291138
 20
-195.6745794956806
 30
0.0
 10
-138.6246291115489
 20
-195.7772578781252
 30
0.0
 10
-138.6529167363913
 20
-195.9944368559633
 30
0.0
 10
-138.8623106828243
 20
-196.2877410131914
 30
0.0
 10
-139.1687174011012
 20
-196.5473130928005
 30
0.0
 10
-139.5751704394543
 20
-196.7677646978614
 30
0.0
 10
-140.0605381881974
 20
-196.9421753369022
 30
0.0
 10
-140.6070115156411
 20
-197.0624392169239
 30
0.0
 10
-141.1916445075678
 20
-197.128879567336
 30
0.0
 10
-141.5907615130496
 20
-197.121491915654
 30
0.0
 10
-141.7920626228169
 20
-197.117765832198
 30
0.0
 11
-138.6112552291138
 21
-195.6745794956806
 31
0.0
 11
-138.6740455346049
 21
-195.9746794817024
 31
0.0
 11
-138.8596966466304
 21
-196.2617841200787
 31
0.0
 11
-139.1601699472224
 21
-196.5234606496607
 31
0.0
 11
-139.5624532178437
 21
-196.7483777449888
 31
0.0
 11
-140.0491267461403
 21
-196.9267954471376
 31
0.0
 11
-140.5991153988081
 21
-197.0509879497713
 31
0.0
 11
-141.1886030436106
 21
-197.1155769301203
 31
0.0
 11
-141.7920626228169
 21
-197.117765832198
 31
0.0
  0
SPLINE
  5
139
330
47
100
AcDbEntity
  8
0
  6
Continuous
 62
     7
100
AcDbSpline
210
0.0
220
0.0
230
1.0
 70
     8
 71
     3
 72
    11
 73
     7
 74
     5
 42
0.000000001
 43
0.0000000001
 44
0.00000001
 40
0.0
 40
0.0
 40
0.0
 40
0.0
 40
0.6432964749389635
 40
1.193368252334679
 40
1.647494861258935
 40
2.035573833287788
 40
2.035573833287788
 40
2.035573833287788
 40
2.035573833287788
 10
-140.0612552291138
 20
-194.4188426601932
 30
0.0
 10
-139.8568597773318
 20
-194.4871123852222
 30
0.0
 10
-139.4776892863737
 20
-194.6137583908211
 30
0.0
 10
-139.0139817437512
 20
-194.9103313802046
 30
0.0
 10
-138.6812750489618
 20
-195.2625085156383
 30
0.0
 10
-138.6333421634862
 20
-195.5445964900961
 30
0.0
 10
-138.6112552291138
 20
-195.6745794956806
 30
0.0
 11
-140.0612552291138
 21
-194.4188426601932
 31
0.0
 11
-139.4606461103772
 21
-194.6492749363123
 31
0.0
 11
-138.9997815581389
 21
-194.9495794956806
 31
0.0
 11
-138.7100710796876
 21
-195.2992919803358
 31
0.0
 11
-138.6112552291138
 21
-195.6745794956806
 31
0.0
  0
SPLINE
  5
13A
330
47
100
AcDbEntity
  8
0
  6
Continuous
 62
     7
100
AcDbSpline
210
0.0
220
0.0
230
1.0
 70
     8
 71
     3
 72
    11
 73
     7
 74
     5
 42
0.000000001
 43
0.0000000001
 44
0.00000001
 40
0.0
 40
0.0
 40
0.0
 40
0.0
 40
0.226750430508058
 40
0.4687516095112995
 40
0.7374139245194352
 40
1.039009610301024
 40
1.039009610301024
 40
1.039009610301024
 40
1.039009610301024
 10
-144.9308704713844
 20
-195.5245794956807
 30
0.0
 10
-144.9237825491456
 20
-195.6004388172189
 30
0.0
 10
-144.909129971618
 20
-195.7572595934034
 30
0.0
 10
-144.7948636886803
 20
-195.9803047860878
 30
0.0
 10
-144.622153704254
 20
-196.1911060255895
 30
0.0
 10
-144.4703985013082
 20
-196.306654853269
 30
0.0
 10
-144.3901388341701
 20
-196.367765832198
 30
0.0
 11
-144.9308704713844
 21
-195.5245794956807
 31
0.0
 11
-144.8960388333911
 21
-195.7486386749416
 31
0.0
 11
-144.7923807693987
 21
-195.9673155553032
 31
0.0
 11
-144.6223862040166
 21
-196.1753571100406
 31
0.0
 11
-144.3901388341701
 21
-196.367765832198
 31
0.0
  0
SPLINE
  5
13B
330
47
100
AcDbEntity
  8
0
  6
Continuous
 62
     7
100
AcDbSpline
210
0.0
220
0.0
230
1.0
 70
     8
 71
     3
 72
     9
 73
     5
 74
     3
 42
0.000000001
 43
0.0000000001
 44
0.00000001
 40
0.0
 40
0.0
 40
0.0
 40
0.0
 40
0.5680484107990713
 40
1.122912603906689
 40
1.122912603906689
 40
1.122912603906689
 40
1.122912603906689
 10
-141.9220247445724
 20
-198.6655358226026
 30
0.0
 10
-142.1116735193668
 20
-198.6664969150041
 30
0.0
 10
-142.4865693818471
 20
-198.6683968130941
 30
0.0
 10
-142.8569326274305
 20
-198.726441334062
 30
0.0
 10
-143.0399400151185
 20
-198.755122851387
 30
0.0
 11
-141.9220247445724
 21
-198.6655358226026
 31
0.0
 11
-142.4898111492652
 21
-198.6827868001776
 31
0.0
 11
-143.0399400151185
 21
-198.755122851387
 31
0.0
  0
SPLINE
  5
13C
330
47
100
AcDbEntity
  8
0
  6
Continuous
 62
     7
100
AcDbSpline
210
0.0
220
0.0
230
1.0
 70
     8
 71
     3
 72
     9
 73
     5
 74
     3
 42
0.000000001
 43
0.0000000001
 44
0.00000001
 40
0.0
 40
0.0
 40
0.0
 40
0.0
 40
0.7141554087429818
 40
1.145429587782314
 40
1.145429587782314
 40
1.145429587782314
 40
1.145429587782314
 10
-143.463713276212
 20
-198.7328243475569
 30
0.0
 10
-143.6142168034339
 20
-198.5320312344165
 30
0.0
 10
-143.8556085211508
 20
-198.2099803780801
 30
0.0
 10
-144.2439292990893
 20
-198.1479140439714
 30
0.0
 10
-144.3901388341701
 20
-198.1245449959966
 30
0.0
 11
-143.463713276212
 21
-198.7328243475569
 31
0.0
 11
-143.9723396797376
 21
-198.2315089446445
 31
0.0
 11
-144.3901388341701
 21
-198.1245449959966
 31
0.0
  0
SPLINE
  5
13D
330
47
100
AcDbEntity
  8
0
  6
Continuous
 62
     7
100
AcDbSpline
210
0.0
220
0.0
230
1.0
 70
     8
 71
     3
 72
    11
 73
     7
 74
     5
 42
0.000000001
 43
0.0000000001
 44
0.00000001
 40
0.0
 40
0.0
 40
0.0
 40
0.0
 40
0.2278688444522328
 40
0.4779058781602211
 40
1.156327169843613
 40
1.993787693941146
 40
1.993787693941146
 40
1.993787693941146
 40
1.993787693941146
 10
-141.9220247445724
 20
-200.4027673883975
 30
0.0
 10
-141.9714336965532
 20
-200.3450595125672
 30
0.0
 10
-142.0750583321637
 20
-200.2240296484999
 30
0.0
 10
-142.3087880462296
 20
-199.9173439534732
 30
0.0
 10
-142.639702810224
 20
-199.4299235905706
 30
0.0
 10
-142.8975115874226
 20
-198.9952574792864
 30
0.0
 10
-143.0399400151185
 20
-198.755122851387
 30
0.0
 11
-141.9220247445724
 21
-200.4027673883975
 31
0.0
 11
-142.0686545041183
 21
-200.2283428367403
 31
0.0
 11
-142.2212056267787
 21
-200.0302351036019
 31
0.0
 11
-142.6046424746733
 21
-199.4705640957347
 31
0.0
 11
-143.0399400151185
 21
-198.755122851387
 31
0.0
  0
SPLINE
  5
13E
330
47
100
AcDbEntity
  8
0
  6
Continuous
 62
     7
100
AcDbSpline
210
0.0
220
0.0
230
1.0
 70
     8
 71
     3
 72
    11
 73
     7
 74
     5
 42
0.000000001
 43
0.0000000001
 44
0.00000001
 40
0.0
 40
0.0
 40
0.0
 40
0.0
 40
0.1871411907843582
 40
0.3630362754382125
 40
0.5295381944253136
 40
0.6906435563658542
 40
0.6906435563658542
 40
0.6906435563658542
 40
0.6906435563658542
 10
-142.7880501483568
 20
-201.570250971226
 30
0.0
 10
-142.7269895337258
 20
-201.5843317718863
 30
0.0
 10
-142.6085376928861
 20
-201.6116471839155
 30
0.0
 10
-142.4304731398412
 20
-201.6027001989434
 30
0.0
 10
-142.2659986633501
 20
-201.5567709760817
 30
0.0
 10
-142.1771091218315
 20
-201.4920043794769
 30
0.0
 10
-142.1333964776488
 20
-201.46015451346
 30
0.0
 11
-142.7880501483568
 21
-201.570250971226
 31
0.0
 11
-142.6039052660727
 21
-201.6036049477873
 31
0.0
 11
-142.4281822927702
 21
-201.595825599397
 31
0.0
 11
-142.2689180721405
 21
-201.5472684372031
 31
0.0
 11
-142.1333964776488
 21
-201.46015451346
 31
0.0
  0
SPLINE
  5
13F
330
47
100
AcDbEntity
  8
0
  6
Continuous
 62
     7
100
AcDbSpline
210
0.0
220
0.0
230
1.0
 70
     8
 71
     3
 72
     9
 73
     5
 74
     3
 42
0.000000001
 43
0.0000000001
 44
0.00000001
 40
0.0
 40
0.0
 40
0.0
 40
0.0
 40
0.0895754927555471
 40
0.1778417218911684
 40
0.1778417218911684
 40
0.1778417218911684
 40
0.1778417218911684
 10
-143.4808704709388
 20
-201.3702509713547
 30
0.0
 10
-143.5095163774157
 20
-201.3618203041156
 30
0.0
 10
-143.5663894869184
 20
-201.345082175804
 30
0.0
 10
-143.6226834197315
 20
-201.3264891828677
 30
0.0
 10
-143.65062316629
 20
-201.3172611173754
 30
0.0
 11
-143.4808704709388
 21
-201.3702509713547
 31
0.0
 11
-143.566661253491
 21
-201.3444883909122
 31
0.0
 11
-143.65062316629
 21
-201.3172611173754
 31
0.0
  0
SPLINE
  5
140
330
47
100
AcDbEntity
  8
0
  6
Continuous
 62
     7
100
AcDbSpline
210
0.0
220
0.0
230
1.0
 70
     8
 71
     3
 72
    15
 73
    11
 74
     9
 42
0.000000001
 43
0.0000000001
 44
0.00000001
 40
0.0
 40
0.0
 40
0.0
 40
0.0
 40
0.0627106859261906
 40
0.134113400443844
 40
0.2212809511873055
 40
0.3288549078500927
 40
0.4175792071600992
 40
0.5247798235765151
 40
0.623369203875776
 40
0.7237388233453032
 40
0.7237388233453032
 40
0.7237388233453032
 40
0.7237388233453032
 10
-142.0980021824049
 20
-201.4267165760278
 30
0.0
 10
-142.1150272460495
 20
-201.438862420543
 30
0.0
 10
-142.1514371447259
 20
-201.4648375745174
 30
0.0
 10
-142.2156291773398
 20
-201.5014347242389
 30
0.0
 10
-142.2964543668165
 20
-201.5383354767678
 30
0.0
 10
-142.3867610067021
 20
-201.5671199379941
 30
0.0
 10
-142.4863033382087
 20
-201.5862432258433
 30
0.0
 10
-142.5844988645298
 20
-201.5928411490227
 30
0.0
 10
-142.6867863373997
 20
-201.5875903208346
 30
0.0
 10
-142.7518000457913
 20
-201.5740778255612
 30
0.0
 10
-142.7845977625058
 20
-201.5672611173753
 30
0.0
 11
-142.0980021824049
 21
-201.4267165760278
 31
0.0
 11
-142.149622992368
 21
-201.4623244714492
 31
0.0
 11
-142.2114930620489
 21
-201.4979677356626
 31
0.0
 11
-142.2908381496372
 21
-201.5340584433662
 31
0.0
 11
-142.3933204120953
 21
-201.5667623009415
 31
0.0
 11
-142.4804617027585
 21
-201.5834475311217
 31
0.0
 11
-142.5874081430174
 21
-201.5908252885366
 31
0.0
 11
-142.6858335086438
 21
-201.5851407919173
 31
0.0
 11
-142.7845977625058
 21
-201.5672611173753
 31
0.0
  0
SPLINE
  5
141
330
47
100
AcDbEntity
  8
0
  6
Continuous
 62
     7
100
AcDbSpline
210
0.0
220
0.0
230
1.0
 70
     8
 71
     3
 72
     9
 73
     5
 74
     3
 42
0.000000001
 43
0.0000000001
 44
0.00000001
 40
0.0
 40
0.0
 40
0.0
 40
0.0
 40
0.0115020574033545
 40
0.0232322003274093
 40
0.0232322003274093
 40
0.0232322003274093
 40
0.0232322003274093
 10
-139.2416345118803
 20
-198.9846777221945
 30
0.0
 10
-139.2409128916401
 20
-198.9884463909399
 30
0.0
 10
-139.2394553219718
 20
-198.9960584565852
 30
0.0
 10
-139.2371798372415
 20
-199.0034674069938
 30
0.0
 10
-139.2360309151793
 20
-199.0072082488197
 30
0.0
 11
-139.2416345118803
 21
-198.9846777221945
 31
0.0
 11
-139.2392691581061
 21
-198.995933939782
 31
0.0
 11
-139.2360309151793
 21
-199.0072082488197
 31
0.0
  0
SPLINE
  5
142
330
47
100
AcDbEntity
  8
0
  6
Continuous
 62
     7
100
AcDbSpline
210
0.0
220
0.0
230
1.0
 70
     8
 71
     3
 72
     9
 73
     5
 74
     3
 42
0.000000001
 43
0.0000000001
 44
0.00000001
 40
0.0
 40
0.0
 40
0.0
 40
0.0
 40
0.2083583257068097
 40
0.4242314255240605
 40
0.4242314255240605
 40
0.4242314255240605
 40
0.4242314255240605
 10
-143.463713276212
 20
-199.4509423158612
 30
0.0
 10
-143.3944505626505
 20
-199.445240542491
 30
0.0
 10
-143.2534270646868
 20
-199.4336313721961
 30
0.0
 10
-143.1119378051923
 20
-199.4357040118534
 30
0.0
 10
-143.0399400151185
 20
-199.4367586990707
 30
0.0
 11
-143.463713276212
 21
-199.4509423158612
 31
0.0
 11
-143.2558127831689
 21
-199.437137352324
 31
0.0
 11
-143.0399400151185
 21
-199.4367586990707
 31
0.0
  0
SPLINE
  5
143
330
47
100
AcDbEntity
  8
0
  6
Continuous
 62
     7
100
AcDbSpline
210
0.0
220
0.0
230
1.0
 70
     8
 71
     3
 72
     9
 73
     5
 74
     3
 42
0.000000001
 43
0.0000000001
 44
0.00000001
 40
0.0
 40
0.0
 40
0.0
 40
0.0
 40
0.0908196470064693
 40
0.1828151729225681
 40
0.1828151729225681
 40
0.1828151729225681
 40
0.1828151729225681
 10
-142.9612552291137
 20
-201.520250971226
 30
0.0
 10
-142.9321227328809
 20
-201.5284903151695
 30
0.0
 10
-142.8734805448919
 20
-201.5450756618951
 30
0.0
 10
-142.81435213091
 20
-201.5598343291429
 30
0.0
 10
-142.7845977625058
 20
-201.5672611173753
 30
0.0
 11
-142.9612552291137
 21
-201.520250971226
 31
0.0
 11
-142.8737377399671
 21
-201.5445181794427
 31
0.0
 11
-142.7845977625058
 21
-201.5672611173753
 31
0.0
  0
SPLINE
  5
144
330
47
100
AcDbEntity
  8
0
  6
Continuous
 62
     7
100
AcDbSpline
210
0.0
220
0.0
230
1.0
 70
     8
 71
     3
 72
    11
 73
     7
 74
     5
 42
0.000000001
 43
0.0000000001
 44
0.00000001
 40
0.0
 40
0.0
 40
0.0
 40
0.0
 40
0.1340578103041011
 40
0.2712905770933586
 40
0.4142835042396876
 40
0.564651490433878
 40
0.564651490433878
 40
0.564651490433878
 40
0.564651490433878
 10
-142.1333964776488
 20
-201.46015451346
 30
0.0
 10
-142.1015684344965
 20
-201.4284691935831
 30
0.0
 10
-142.0371585602131
 20
-201.364348125114
 30
0.0
 10
-141.9716499044112
 20
-201.2408549607906
 30
0.0
 10
-141.9293552704571
 20
-201.1024835492249
 30
0.0
 10
-141.9245088609412
 20
-201.0044662761701
 30
0.0
 10
-141.9220247445724
 20
-200.9542255674415
 30
0.0
 11
-142.1333964776488
 21
-201.46015451346
 31
0.0
 11
-142.0431652085898
 21
-201.3610090899163
 31
0.0
 11
-141.9765864370568
 21
-201.2410086727873
 31
0.0
 11
-141.9357743389409
 21
-201.1039636056281
 31
0.0
 11
-141.9220247445724
 21
-200.9542255674415
 31
0.0
  0
SPLINE
  5
145
330
47
100
AcDbEntity
  8
0
  6
Continuous
 62
     7
100
AcDbSpline
210
0.0
220
0.0
230
1.0
 70
     8
 71
     3
 72
    13
 73
     9
 74
     7
 42
0.000000001
 43
0.0000000001
 44
0.00000001
 40
0.0
 40
0.0
 40
0.0
 40
0.0
 40
0.2431393364644914
 40
0.4984426510335288
 40
0.7592948545267839
 40
1.018025409106901
 40
1.267360558732763
 40
1.5018868885787
 40
1.5018868885787
 40
1.5018868885787
 40
1.5018868885787
 10
-143.6540755521413
 20
-201.320250971226
 30
0.0
 10
-143.7304391426263
 20
-201.2921250663887
 30
0.0
 10
-143.8869866994226
 20
-201.2344661367747
 30
0.0
 10
-144.0937905671879
 20
-201.0836600705309
 30
0.0
 10
-144.2729874102266
 20
-200.8957832596458
 30
0.0
 10
-144.4095263685709
 20
-200.6773677556729
 30
0.0
 10
-144.5012664419349
 20
-200.4440719260453
 30
0.0
 10
-144.5139522073828
 20
-200.2825262929308
 30
0.0
 10
-144.5201009559257
 20
-200.2042255674416
 30
0.0
 11
-143.6540755521413
 21
-201.320250971226
 31
0.0
 11
-143.8782193604252
 21
-201.2260369041343
 31
0.0
 11
-144.0870882540335
 21
-201.0792255674415
 31
0.0
 11
-144.266447824575
 21
-200.8898211917084
 31
0.0
 11
-144.4040755521413
 21
-200.6707319183877
 31
0.0
 11
-144.490591632859
 21
-200.4368879835336
 31
0.0
 11
-144.5201009559257
 21
-200.2042255674416
 31
0.0
  0
SPLINE
  5
146
330
47
100
AcDbEntity
  8
0
  6
Continuous
 62
     7
100
AcDbSpline
210
0.0
220
0.0
230
1.0
 70
     8
 71
     3
 72
    19
 73
    15
 74
    13
 42
0.000000001
 43
0.0000000001
 44
0.00000001
 40
0.0
 40
0.0
 40
0.0
 40
0.0
 40
0.0785920178352909
 40
0.1808317999090603
 40
0.2870570847473231
 40
0.3734240932226557
 40
0.5696731740326824
 40
0.7705907675890589
 40
0.9669594600200724
 40
1.156620373757947
 40
1.242894796205311
 40
1.339720140125285
 40
1.422048805064021
 40
1.516278758714998
 40
1.516278758714998
 40
1.516278758714998
 40
1.516278758714998
 10
-144.3901388341701
 20
-200.0916750684715
 30
0.0
 10
-144.3896245327751
 20
-200.1178754714077
 30
0.0
 10
-144.3884411643718
 20
-200.1781597866408
 30
0.0
 10
-144.3783682684959
 20
-200.2734403614406
 30
0.0
 10
-144.3617866232521
 20
-200.3703704591334
 30
0.0
 10
-144.3321040030805
 20
-200.4965933371622
 30
0.0
 10
-144.2818474150334
 20
-200.650168931355
 30
0.0
 10
-144.1973432540588
 20
-200.8296813329871
 30
0.0
 10
-144.0900235861538
 20
-200.9940872411764
 30
0.0
 10
-143.9836456913321
 20
-201.1112947528832
 30
0.0
 10
-143.8884095965051
 20
-201.1913425357996
 30
0.0
 10
-143.8152295343733
 20
-201.2413162302054
 30
0.0
 10
-143.7351876490467
 20
-201.285378722938
 30
0.0
 10
-143.6800502123272
 20
-201.3061665747838
 30
0.0
 10
-143.65062316629
 20
-201.3172611173754
 30
0.0
 11
-144.3901388341701
 21
-200.0916750684715
 31
0.0
 11
-144.3876208681176
 21
-200.1702267370565
 31
0.0
 11
-144.3774475739412
 21
-200.2719591126196
 31
0.0
 11
-144.3594924248483
 21
-200.3766559294887
 31
0.0
 11
-144.3397635068034
 21
-200.460739399507
 31
0.0
 11
-144.2786052489252
 21
-200.6472155888936
 31
0.0
 11
-144.1925835392218
 21
-200.8287869104341
 31
0.0
 11
-144.0845629618856
 21
-200.9927753803888
 31
0.0
 11
-143.9564154663832
 21
-201.1325948431276
 31
0.0
 11
-143.8902834009702
 21
-201.1880008557224
 31
0.0
 11
-143.8103391150526
 21
-201.2426273974186
 31
0.0
 11
-143.7379232432197
 21
-201.28179308568
 31
0.0
 11
-143.65062316629
 21
-201.3172611173754
 31
0.0
  0
SPLINE
  5
147
330
47
100
AcDbEntity
  8
0
  6
Continuous
 62
     7
100
AcDbSpline
210
0.0
220
0.0
230
1.0
 70
     8
 71
     3
 72
    11
 73
     7
 74
     5
 42
0.000000001
 43
0.0000000001
 44
0.00000001
 40
0.0
 40
0.0
 40
0.0
 40
0.0
 40
1.094313437822021
 40
2.169457302757422
 40
3.220281523627577
 40
4.24265832522746
 40
4.24265832522746
 40
4.24265832522746
 40
4.24265832522746
 10
-146.1145025221115
 20
-226.5474477278528
 30
0.0
 10
-146.2922473353215
 20
-226.2285692783346
 30
0.0
 10
-146.6446233139434
 20
-225.5963983073459
 30
0.0
 10
-147.0533359489684
 20
-224.6017419324723
 30
0.0
 10
-147.371498583958
 20
-223.5991353292187
 30
0.0
 10
-147.4918432150688
 20
-222.9179345187369
 30
0.0
 10
-147.5511898691714
 20
-222.582007659054
 30
0.0
 11
-146.1145025221115
 21
-226.5474477278528
 31
0.0
 11
-146.6281370811926
 21
-225.5811654499553
 31
0.0
 11
-147.04236128729
 21
-224.5890199770321
 31
0.0
 11
-147.3514656896487
 21
-223.5846863602283
 31
0.0
 11
-147.5511898691714
 21
-222.582007659054
 31
0.0
  0
SPLINE
  5
148
330
47
100
AcDbEntity
  8
0
  6
Continuous
 62
     7
100
AcDbSpline
210
0.0
220
0.0
230
1.0
 70
     8
 71
     3
 72
    13
 73
     9
 74
     7
 42
0.000000001
 43
0.0000000001
 44
0.00000001
 40
0.0
 40
0.0
 40
0.0
 40
0.0
 40
1.618800875634435
 40
3.296662960633944
 40
5.042045806818072
 40
6.857713221234242
 40
8.741157514545495
 40
10.68531582206685
 40
10.68531582206685
 40
10.68531582206685
 40
10.68531582206685
 10
-137.3320901045156
 20
-208.9909224467741
 30
0.0
 10
-137.5489967915371
 20
-209.4863431489307
 30
0.0
 10
-137.9907238931819
 20
-210.49525975632
 30
0.0
 10
-138.3363457989982
 20
-212.1509752785523
 30
0.0
 10
-138.4587980442978
 20
-213.897404569679
 30
0.0
 10
-138.3278851170608
 20
-215.7125695706204
 30
0.0
 10
-137.9708938845738
 20
-217.566117926209
 30
0.0
 10
-137.5472645932604
 20
-218.7711526901672
 30
0.0
 10
-137.3320901045145
 20
-219.3832272921851
 30
0.0
 11
-137.3320901045156
 21
-208.9909224467741
 31
0.0
 11
-137.9307885551279
 21
-210.4949425416385
 31
0.0
 11
-138.2945667458362
 21
-212.1328944981107
 31
0.0
 11
-138.4165901898787
 21
-213.8740066613693
 31
0.0
 11
-138.2945667458358
 21
-215.6855690928934
 31
0.0
 11
-137.9307885551271
 21
-217.5335484856964
 31
0.0
 11
-137.3320901045145
 21
-219.3832272921851
 31
0.0
  0
SPLINE
  5
149
330
47
100
AcDbEntity
  8
0
  6
Continuous
 62
     7
100
AcDbSpline
210
0.0
220
0.0
230
1.0
 70
     8
 71
     3
 72
    13
 73
     9
 74
     7
 42
0.000000001
 43
0.0000000001
 44
0.00000001
 40
0.0
 40
0.0
 40
0.0
 40
0.0
 40
1.618800875634372
 40
3.296662960633848
 40
5.042045806818065
 40
6.857713221234237
 40
8.741157514545485
 40
10.68531582206684
 40
10.68531582206684
 40
10.68531582206684
 40
10.68531582206684
 10
-134.2570901045156
 20
-206.327894330137
 30
0.0
 10
-134.4739967915372
 20
-206.8233150322936
 30
0.0
 10
-134.9157238931819
 20
-207.8322316396829
 30
0.0
 10
-135.2613457989981
 20
-209.4879471619151
 30
0.0
 10
-135.3837980442978
 20
-211.234376453042
 30
0.0
 10
-135.2528851170607
 20
-213.0495414539832
 30
0.0
 10
-134.8958938845738
 20
-214.9030898095719
 30
0.0
 10
-134.4722645932604
 20
-216.10812457353
 30
0.0
 10
-134.2570901045145
 20
-216.720199175548
 30
0.0
 11
-134.2570901045156
 21
-206.327894330137
 31
0.0
 11
-134.8557885551278
 21
-207.8319144250013
 31
0.0
 11
-135.2195667458361
 21
-209.4698663814735
 31
0.0
 11
-135.3415901898787
 21
-211.2109785447322
 31
0.0
 11
-135.2195667458357
 21
-213.0225409762564
 31
0.0
 11
-134.8557885551271
 21
-214.8705203690593
 31
0.0
 11
-134.2570901045145
 21
-216.720199175548
 31
0.0
  0
SPLINE
  5
14A
330
47
100
AcDbEntity
  8
0
  6
Continuous
 62
     7
100
AcDbSpline
210
0.0
220
0.0
230
1.0
 70
     8
 71
     3
 72
    11
 73
     7
 74
     5
 42
0.000000001
 43
0.0000000001
 44
0.00000001
 40
0.0
 40
0.0
 40
0.0
 40
0.0
 40
0.1628827694048771
 40
0.3284664857699781
 40
0.5225096977690391
 40
0.7226323453576083
 40
0.7226323453576083
 40
0.7226323453576083
 40
0.7226323453576083
 10
-178.7308759551262
 20
-190.8517157444491
 30
0.0
 10
-178.776313766577
 20
-190.881804647201
 30
0.0
 10
-178.8679428537099
 20
-190.9424813787426
 30
0.0
 10
-179.0339640538488
 20
-190.9996074672093
 30
0.0
 10
-179.2211685039399
 20
-191.0260505116868
 30
0.0
 10
-179.3513683490624
 20
-191.0036394730244
 30
0.0
 10
-179.4174723425883
 20
-190.9922611173751
 30
0.0
 11
-178.7308759551262
 21
-190.8517157444491
 31
0.0
 11
-178.8703215412424
 21
-190.9358924959365
 31
0.0
 11
-179.0261949921778
 21
-190.9917623009412
 31
0.0
 11
-179.2187411592824
 21
-191.0158193694695
 31
0.0
 11
-179.4174723425883
 21
-190.9922611173751
 31
0.0
  0
SPLINE
  5
14B
330
47
100
AcDbEntity
  8
0
  6
Continuous
 62
     7
100
AcDbSpline
210
0.0
220
0.0
230
1.0
 70
     8
 71
     3
 72
     9
 73
     5
 74
     3
 42
0.000000001
 43
0.0000000001
 44
0.00000001
 40
0.0
 40
0.0
 40
0.0
 40
0.0
 40
0.0908196470064145
 40
0.1828151729225754
 40
0.1828151729225754
 40
0.1828151729225754
 40
0.1828151729225754
 10
-179.5941298091962
 20
-190.9452509712258
 30
0.0
 10
-179.5649973129634
 20
-190.9534903151693
 30
0.0
 10
-179.5063551249744
 20
-190.970075661895
 30
0.0
 10
-179.4472267109925
 20
-190.9848343291426
 30
0.0
 10
-179.4174723425883
 20
-190.9922611173751
 30
0.0
 11
-179.5941298091962
 21
-190.9452509712258
 31
0.0
 11
-179.5066123200496
 21
-190.9695181794424
 31
0.0
 11
-179.4174723425883
 21
-190.9922611173751
 31
0.0
  0
SPLINE
  5
14C
330
47
100
AcDbEntity
  8
0
  6
Continuous
 62
     7
100
AcDbSpline
210
0.0
220
0.0
230
1.0
 70
     8
 71
     3
 72
    15
 73
    11
 74
     9
 42
0.000000001
 43
0.0000000001
 44
0.00000001
 40
0.0
 40
0.0
 40
0.0
 40
0.0
 40
0.1003612771849211
 40
0.2016277654647446
 40
0.3454757050682836
 40
0.4898838479204546
 40
0.6492815065772596
 40
0.7852378500255324
 40
0.9536488900189009
 40
1.12013835116129
 40
1.12013835116129
 40
1.12013835116129
 40
1.12013835116129
 10
-179.5123030632947
 20
-190.9679997581418
 30
0.0
 10
-179.4892821112306
 20
-190.9437131960599
 30
0.0
 10
-179.4430325585678
 20
-190.8949210288028
 30
0.0
 10
-179.3578348718315
 20
-190.8173081498632
 30
0.0
 10
-179.2563342091133
 20
-190.7361371085741
 30
0.0
 10
-179.132623225448
 20
-190.6524370909302
 30
0.0
 10
-179.0048758224048
 20
-190.5801527253573
 30
0.0
 10
-178.864686332925
 20
-190.5148103160215
 30
0.0
 10
-178.7176885526229
 20
-190.4589053818785
 30
0.0
 10
-178.6095174637055
 20
-190.431036944094
 30
0.0
 10
-178.5557422471879
 20
-190.4171826834647
 30
0.0
 11
-179.5123030632947
 21
-190.9679997581418
 31
0.0
 11
-179.4423795272938
 21
-190.8960061110798
 31
0.0
 11
-179.3677515262356
 21
-190.8275549365892
 31
0.0
 11
-179.2553476453223
 21
-190.7377908145696
 31
0.0
 11
-179.1357952000685
 21
-190.6567912787376
 31
0.0
 11
-178.9970517789575
 21
-190.5783191376902
 31
0.0
 11
-178.873895305061
 21
-190.5207291178127
 31
0.0
 11
-178.7161737939826
 21
-190.4616850368213
 31
0.0
 11
-178.5557422471879
 21
-190.4171826834647
 31
0.0
  0
SPLINE
  5
14D
330
47
100
AcDbEntity
  8
0
  6
Continuous
 62
     7
100
AcDbSpline
210
0.0
220
0.0
230
1.0
 70
     8
 71
     3
 72
     9
 73
     5
 74
     3
 42
0.000000001
 43
0.0000000001
 44
0.00000001
 40
0.0
 40
0.0
 40
0.0
 40
0.0
 40
0.0895754923497994
 40
0.1778417214276387
 40
0.1778417214276387
 40
0.1778417214276387
 40
0.1778417214276387
 10
-180.1137450514669
 20
-190.7952509712258
 30
0.0
 10
-180.1423909578135
 20
-190.7868203040232
 30
0.0
 10
-180.1992640671668
 20
-190.7700821757514
 30
0.0
 10
-180.2555579998327
 20
-190.7514891828622
 30
0.0
 10
-180.2834977463727
 20
-190.7422611173751
 30
0.0
 11
-180.1137450514669
 21
-190.7952509712258
 31
0.0
 11
-180.1995358336293
 21
-190.769488390896
 31
0.0
 11
-180.2834977463727
 21
-190.7422611173751
 31
0.0
  0
SPLINE
  5
14E
330
47
100
AcDbEntity
  8
0
  6
Continuous
 62
     7
100
AcDbSpline
210
0.0
220
0.0
230
1.0
 70
     8
 71
     3
 72
    15
 73
    11
 74
     9
 42
0.000000001
 43
0.0000000001
 44
0.00000001
 40
0.0
 40
0.0
 40
0.0
 40
0.0
 40
0.306598466303131
 40
0.6484981671382233
 40
1.046943660643455
 40
1.507833593314696
 40
2.02618096696592
 40
2.590017198295415
 40
3.183032729144219
 40
3.786496287928299
 40
3.786496287928299
 40
3.786496287928299
 40
3.786496287928299
 10
-175.2441298091963
 20
-185.0995794956804
 30
0.0
 10
-175.2575036916314
 20
-185.202257878125
 30
0.0
 10
-175.2857913164738
 20
-185.4194368559631
 30
0.0
 10
-175.4951852629068
 20
-185.7127410131914
 30
0.0
 10
-175.8015919811837
 20
-185.9723130928004
 30
0.0
 10
-176.2080450195368
 20
-186.1927646978613
 30
0.0
 10
-176.6934127682798
 20
-186.3671753369019
 30
0.0
 10
-177.2398860957236
 20
-186.4874392169238
 30
0.0
 10
-177.8245190876503
 20
-186.5538795673357
 30
0.0
 10
-178.223636093132
 20
-186.5464919156538
 30
0.0
 10
-178.4249372028993
 20
-186.5427658321978
 30
0.0
 11
-175.2441298091963
 21
-185.0995794956804
 31
0.0
 11
-175.3069201146874
 21
-185.3996794817022
 31
0.0
 11
-175.4925712267128
 21
-185.6867841200786
 31
0.0
 11
-175.7930445273049
 21
-185.9484606496605
 31
0.0
 11
-176.1953277979262
 21
-186.1733777449886
 31
0.0
 11
-176.6820013262227
 21
-186.3517954471374
 31
0.0
 11
-177.2319899788905
 21
-186.4759879497711
 31
0.0
 11
-177.8214776236931
 21
-186.54057693012
 31
0.0
 11
-178.4249372028993
 21
-186.5427658321978
 31
0.0
  0
SPLINE
  5
14F
330
47
100
AcDbEntity
  8
0
  6
Continuous
 62
     7
100
AcDbSpline
210
0.0
220
0.0
230
1.0
 70
     8
 71
     3
 72
    11
 73
     7
 74
     5
 42
0.000000001
 43
0.0000000001
 44
0.00000001
 40
0.0
 40
0.0
 40
0.0
 40
0.0
 40
0.6432964749390002
 40
1.193368252334701
 40
1.647494861259
 40
2.035573833287791
 40
2.035573833287791
 40
2.035573833287791
 40
2.035573833287791
 10
-176.6941298091963
 20
-183.843842660193
 30
0.0
 10
-176.4897343574143
 20
-183.9121123852219
 30
0.0
 10
-176.1105638664562
 20
-184.038758390821
 30
0.0
 10
-175.6468563238336
 20
-184.3353313802044
 30
0.0
 10
-175.3141496290443
 20
-184.6875085156382
 30
0.0
 10
-175.2662167435687
 20
-184.9695964900959
 30
0.0
 10
-175.2441298091963
 20
-185.0995794956804
 30
0.0
 11
-176.6941298091963
 21
-183.843842660193
 31
0.0
 11
-176.0935206904597
 21
-184.0742749363121
 31
0.0
 11
-175.6326561382214
 21
-184.3745794956804
 31
0.0
 11
-175.34294565977
 21
-184.7242919803356
 31
0.0
 11
-175.2441298091963
 21
-185.0995794956804
 31
0.0
  0
ENDBLK
  5
49
330
47
100
AcDbEntity
  8
0
100
AcDbBlockEnd
  0
BLOCK
  5
4C
330
4A
100
AcDbEntity
  8
0
100
AcDbBlockBegin
  2
Allg1
 70
     0
 10
-160.0000000238368
 20
-205.500000020643
 30
0.0
  3
Allg1
  1

  0
INSERT
  5
4B
330
4A
100
AcDbEntity
  8
0
100
AcDbBlockReference
  2
ST_4_DIO_1N_5408_R_L-select__1
 10
-185.742910176065
 20
-227.139866147964
 30
0.0
  0
MTEXT
  5
151
330
4A
100
AcDbEntity
  8
1
 62
     6
100
AcDbMText
 10
-159.9934104482168
 20
-232.139866147964
 30
0.0
 40
5.0
 41
0.0
 71
     2
 72
     1
  1
 
  7
CONVERTER_11
 73
     1
 44
1.32052821128451
  0
ENDBLK
  5
4D
330
4A
100
AcDbEntity
  8
0
100
AcDbBlockEnd
  0
BLOCK
  5
4F
330
4E
100
AcDbEntity
  8
0
100
AcDbBlockBegin
  2
ST_4_DIO_1N_5408_R_L-select__2
 70
     0
 10
-294.0500145401708
 20
-207.4750080026964
 30
0.0
  3
ST_4_DIO_1N_5408_R_L-select__2
  1

  0
LINE
  5
152
330
4E
100
AcDbEntity
  8
0
  6
Continuous
 62
     7
100
AcDbLine
 10
-280.7454771290921
 20
-206.8250080026964
 30
0.0
 11
-281.4500145401715
 21
-206.8250080026964
 31
0.0
  0
LINE
  5
153
330
4E
100
AcDbEntity
  8
0
  6
Continuous
 62
     7
100
AcDbLine
 10
-276.9500145401715
 20
-206.8250080026964
 30
0.0
 11
-280.7454771290921
 21
-206.8250080026964
 31
0.0
  0
LINE
  5
154
330
4E
100
AcDbEntity
  8
0
  6
Continuous
 62
     7
100
AcDbLine
 10
-274.8500145401712
 20
-207.4750080026964
 30
0.0
 11
-274.8500145401712
 21
-206.8250080026964
 31
0.0
  0
LINE
  5
155
330
4E
100
AcDbEntity
  8
0
  6
Continuous
 62
     7
100
AcDbLine
 10
-266.8500145401715
 20
-207.4750080026964
 30
0.0
 11
-266.8500145401715
 21
-206.8250080026964
 31
0.0
  0
LINE
  5
156
330
4E
100
AcDbEntity
  8
0
  6
Continuous
 62
     7
100
AcDbLine
 10
-266.8500145401715
 20
-206.8250080026964
 30
0.0
 11
-270.00001454019
 21
-206.8250080026964
 31
0.0
  0
LINE
  5
157
330
4E
100
AcDbEntity
  8
0
  6
Continuous
 62
     7
100
AcDbLine
 10
-271.7000145401518
 20
-206.8250080026964
 30
0.0
 11
-274.8500145401712
 21
-206.8250080026964
 31
0.0
  0
LINE
  5
158
330
4E
100
AcDbEntity
  8
0
  6
Continuous
 62
     2
100
AcDbLine
 10
-245.4500145401715
 20
-207.4750080026964
 30
0.0
 11
-245.4500145401715
 21
-207.4681032309943
 31
0.0
  0
LINE
  5
159
330
4E
100
AcDbEntity
  8
0
  6
Continuous
 62
     7
100
AcDbLine
 10
-250.7500145401724
 20
-206.8250080026964
 30
0.0
 11
-251.4545519512518
 21
-206.8250080026964
 31
0.0
  0
LINE
  5
15A
330
4E
100
AcDbEntity
  8
0
  6
Continuous
 62
     7
100
AcDbLine
 10
-251.4545519512518
 20
-206.8250080026964
 30
0.0
 11
-255.2500145401723
 21
-206.8250080026964
 31
0.0
  0
LINE
  5
15B
330
4E
100
AcDbEntity
  8
0
  6
Continuous
 62
     7
100
AcDbLine
 10
-275.5685142594762
 20
-207.4750080026964
 30
0.0
 11
-285.7500145401725
 21
-207.4750080026964
 31
0.0
  0
LINE
  5
15C
330
4E
100
AcDbEntity
  8
0
  6
Continuous
 62
     7
100
AcDbLine
 10
-275.5685142594762
 20
-207.4750080026964
 30
0.0
 11
-274.8500145401712
 21
-207.4750080026964
 31
0.0
  0
LINE
  5
15D
330
4E
100
AcDbEntity
  8
0
  6
Continuous
 62
     7
100
AcDbLine
 10
-266.8500145401715
 20
-207.4750080026964
 30
0.0
 11
-266.1315148208656
 21
-207.4750080026964
 31
0.0
  0
LINE
  5
15E
330
4E
100
AcDbEntity
  8
0
  6
Continuous
 62
     7
100
AcDbLine
 10
-274.8500145401712
 20
-207.4750080026964
 30
0.0
 11
-266.8500145401715
 21
-207.4750080026964
 31
0.0
  0
LINE
  5
15F
330
4E
100
AcDbEntity
  8
0
  6
Continuous
 62
     7
100
AcDbLine
 10
-263.5346160730855
 20
-207.4750080026964
 30
0.0
 11
-264.4596689151462
 21
-207.4750080026964
 31
0.0
  0
LINE
  5
160
330
4E
100
AcDbEntity
  8
0
  6
Continuous
 62
     7
100
AcDbLine
 10
-258.2654130072576
 20
-207.4750080026964
 30
0.0
 11
-263.5346160730855
 21
-207.4750080026964
 31
0.0
  0
LINE
  5
161
330
4E
100
AcDbEntity
  8
0
  6
Continuous
 62
     7
100
AcDbLine
 10
-257.3403601651939
 20
-207.4750080026964
 30
0.0
 11
-258.2654130072576
 21
-207.4750080026964
 31
0.0
  0
LINE
  5
162
330
4E
100
AcDbEntity
  8
0
  6
Continuous
 62
     7
100
AcDbLine
 10
-246.4500145401715
 20
-207.4750080026964
 30
0.0
 11
-257.3403601651939
 21
-207.4750080026964
 31
0.0
  0
LINE
  5
163
330
4E
100
AcDbEntity
  8
0
  6
Continuous
 62
     7
100
AcDbLine
 10
-245.4500145401715
 20
-207.4750080026964
 30
0.0
 11
-245.250014539657
 21
-207.4750080026964
 31
0.0
  0
LINE
  5
164
330
4E
100
AcDbEntity
  8
0
  6
Continuous
 62
     7
100
AcDbLine
 10
-245.4500145401715
 20
-207.4750080026964
 30
0.0
 11
-246.4500145401715
 21
-207.4750080026964
 31
0.0
  0
LINE
  5
165
330
4E
100
AcDbEntity
  8
0
  6
Continuous
 62
     7
100
AcDbLine
 10
-266.1315148208656
 20
-207.4750080026964
 30
0.0
 11
-264.4596689151462
 21
-207.4750080026964
 31
0.0
  0
LINE
  5
166
330
4E
100
AcDbEntity
  8
0
  6
Continuous
 62
     2
100
AcDbLine
 10
-244.4500145401715
 20
-207.4750080026964
 30
0.0
 11
-244.4500145401716
 21
-207.4681032309943
 31
0.0
  0
LINE
  5
167
330
4E
100
AcDbEntity
  8
0
  6
Continuous
 62
     7
100
AcDbLine
 10
-284.4484854974919
 20
-203.1079182138199
 30
0.0
 11
-284.4484854974919
 21
-206.0420977915729
 31
0.0
  0
LINE
  5
168
330
4E
100
AcDbEntity
  8
0
  6
Continuous
 62
     7
100
AcDbLine
 10
-287.5500145401391
 20
-202.7250080026964
 30
0.0
 11
-286.9500145401723
 21
-202.7250080026964
 31
0.0
  0
LINE
  5
169
330
4E
100
AcDbEntity
  8
0
  6
Continuous
 62
     7
100
AcDbLine
 10
-286.9500145401723
 20
-202.7250080026964
 30
0.0
 11
-285.4000142315302
 21
-202.7250080026964
 31
0.0
  0
LINE
  5
16A
330
4E
100
AcDbEntity
  8
0
  6
Continuous
 62
     7
100
AcDbLine
 10
-285.4000142315302
 20
-202.7250080026964
 30
0.0
 11
-284.7167433967597
 21
-202.7250080026964
 31
0.0
  0
LINE
  5
16B
330
4E
100
AcDbEntity
  8
0
  6
Continuous
 62
     2
100
AcDbLine
 10
-287.5500145401391
 20
-202.7250080026964
 30
0.0
 11
-287.5500145401724
 21
-201.6750080026964
 31
0.0
  0
LINE
  5
16C
330
4E
100
AcDbEntity
  8
0
  6
Continuous
 62
     2
100
AcDbLine
 10
-286.9500145401723
 20
-202.7250080026964
 30
0.0
 11
-286.9500145401725
 21
-201.6750080026964
 31
0.0
  0
LINE
  5
16D
330
4E
100
AcDbEntity
  8
0
  6
Continuous
 62
     7
100
AcDbLine
 10
-289.0000145401723
 20
-204.975008002693
 30
0.0
 11
-289.0000145401723
 21
-204.1750080026964
 31
0.0
  0
LINE
  5
16E
330
4E
100
AcDbEntity
  8
0
  6
Continuous
 62
     7
100
AcDbLine
 10
-292.0898203108245
 20
-201.3250080026964
 30
0.0
 11
-275.5685142594762
 21
-201.3250080026964
 31
0.0
  0
LINE
  5
16F
330
4E
100
AcDbEntity
  8
0
  6
Continuous
 62
     7
100
AcDbLine
 10
-292.4480484482452
 20
-201.3250080026964
 30
0.0
 11
-292.3477802084692
 21
-201.3250080026964
 31
0.0
  0
LINE
  5
170
330
4E
100
AcDbEntity
  8
0
  6
Continuous
 62
     7
100
AcDbLine
 10
-292.3477802084692
 20
-201.3250080026964
 30
0.0
 11
-292.0898203108245
 21
-201.3250080026964
 31
0.0
  0
LINE
  5
171
330
4E
100
AcDbEntity
  8
0
  6
Continuous
 62
     7
100
AcDbLine
 10
-293.411692610046
 20
-201.3250080026964
 30
0.0
 11
-292.4480484482452
 21
-201.3250080026964
 31
0.0
  0
LINE
  5
172
330
4E
100
AcDbEntity
  8
0
  6
Continuous
 62
     7
100
AcDbLine
 10
-286.9500145401725
 20
-201.6750080026964
 30
0.0
 11
-287.5500145401724
 21
-201.6750080026964
 31
0.0
  0
LINE
  5
173
330
4E
100
AcDbEntity
  8
0
  6
Continuous
 62
     7
100
AcDbLine
 10
-274.8500145401712
 20
-201.3250080026964
 30
0.0
 11
-275.5685142594762
 21
-201.3250080026964
 31
0.0
  0
LINE
  5
174
330
4E
100
AcDbEntity
  8
0
  6
Continuous
 62
     7
100
AcDbLine
 10
-240.1102087695195
 20
-201.3250080026964
 30
0.0
 11
-257.3403601651939
 21
-201.3250080026964
 31
0.0
  0
LINE
  5
175
330
4E
100
AcDbEntity
  8
0
  6
Continuous
 62
     7
100
AcDbLine
 10
-266.1315148208656
 20
-201.3250080026964
 30
0.0
 11
-266.8500145401715
 21
-201.3250080026964
 31
0.0
  0
LINE
  5
176
330
4E
100
AcDbEntity
  8
0
  6
Continuous
 62
     7
100
AcDbLine
 10
-263.5346160730855
 20
-201.3250080026964
 30
0.0
 11
-264.4596689151462
 21
-201.3250080026964
 31
0.0
  0
LINE
  5
177
330
4E
100
AcDbEntity
  8
0
  6
Continuous
 62
     7
100
AcDbLine
 10
-257.3403601651939
 20
-201.3250080026964
 30
0.0
 11
-258.2654130072576
 21
-201.3250080026964
 31
0.0
  0
LINE
  5
178
330
4E
100
AcDbEntity
  8
0
  6
Continuous
 62
     7
100
AcDbLine
 10
-258.2654130072576
 20
-201.3250080026964
 30
0.0
 11
-263.5346160730855
 21
-201.3250080026964
 31
0.0
  0
LINE
  5
179
330
4E
100
AcDbEntity
  8
0
  6
Continuous
 62
     7
100
AcDbLine
 10
-264.4596689151462
 20
-201.3250080026964
 30
0.0
 11
-266.1315148208656
 21
-201.3250080026964
 31
0.0
  0
LINE
  5
17A
330
4E
100
AcDbEntity
  8
0
  6
Continuous
 62
     7
100
AcDbLine
 10
-266.8500145401715
 20
-201.3250080026964
 30
0.0
 11
-274.8500145401712
 21
-201.3250080026964
 31
0.0
  0
LINE
  5
17B
330
4E
100
AcDbEntity
  8
0
  6
Continuous
 62
     7
100
AcDbLine
 10
-238.788336470298
 20
-207.4750080026964
 30
0.0
 11
-238.788336470298
 21
-201.3250080026964
 31
0.0
  0
LINE
  5
17C
330
4E
100
AcDbEntity
  8
0
  6
Continuous
 62
     7
100
AcDbLine
 10
-244.4500145401715
 20
-207.4750080026964
 30
0.0
 11
-243.4500145401717
 21
-207.4750080026964
 31
0.0
  0
LINE
  5
17D
330
4E
100
AcDbEntity
  8
0
  6
Continuous
 62
     7
100
AcDbLine
 10
-239.8522488718747
 20
-207.4750080026964
 30
0.0
 11
-239.8522488718747
 21
-201.3250080026964
 31
0.0
  0
LINE
  5
17E
330
4E
100
AcDbEntity
  8
0
  6
Continuous
 62
     7
100
AcDbLine
 10
-243.4500145401717
 20
-207.2150837591852
 30
0.0
 11
-243.4500145401717
 21
-207.4750080026964
 31
0.0
  0
LINE
  5
17F
330
4E
100
AcDbEntity
  8
0
  6
Continuous
 62
     7
100
AcDbLine
 10
-244.4500145401715
 20
-207.4750080026964
 30
0.0
 11
-244.6500145401715
 21
-207.4750080026964
 31
0.0
  0
LINE
  5
180
330
4E
100
AcDbEntity
  8
0
  6
Continuous
 62
     7
100
AcDbLine
 10
-244.6500145401715
 20
-207.4750080026964
 30
0.0
 11
-245.250014539657
 21
-207.4750080026964
 31
0.0
  0
LINE
  5
181
330
4E
100
AcDbEntity
  8
0
  6
Continuous
 62
     7
100
AcDbLine
 10
-239.8522488718747
 20
-207.4750080026964
 30
0.0
 11
-239.7519806320979
 21
-207.4750080026964
 31
0.0
  0
LINE
  5
182
330
4E
100
AcDbEntity
  8
0
  6
Continuous
 62
     7
100
AcDbLine
 10
-240.1102087695195
 20
-207.4750080026964
 30
0.0
 11
-239.8522488718747
 21
-207.4750080026964
 31
0.0
  0
LINE
  5
183
330
4E
100
AcDbEntity
  8
0
  6
Continuous
 62
     7
100
AcDbLine
 10
-243.4500145401717
 20
-207.4750080026964
 30
0.0
 11
-240.1102087695195
 21
-207.4750080026964
 31
0.0
  0
LINE
  5
184
330
4E
100
AcDbEntity
  8
0
  6
Continuous
 62
     7
100
AcDbLine
 10
-239.7519806320979
 20
-207.4750080026964
 30
0.0
 11
-238.788336470298
 21
-207.4750080026964
 31
0.0
  0
LINE
  5
185
330
4E
100
AcDbEntity
  8
0
  6
Continuous
 62
     2
100
AcDbLine
 10
-244.6500145402048
 20
-202.7250080026964
 30
0.0
 11
-244.6500145401716
 21
-201.6750080026964
 31
0.0
  0
LINE
  5
186
330
4E
100
AcDbEntity
  8
0
  6
Continuous
 62
     7
100
AcDbLine
 10
-244.6500145401429
 20
-206.4250080026964
 30
0.0
 11
-245.2500145401716
 21
-206.4250080026964
 31
0.0
  0
LINE
  5
187
330
4E
100
AcDbEntity
  8
0
  6
Continuous
 62
     2
100
AcDbLine
 10
-245.2500145401716
 20
-202.7250080026964
 30
0.0
 11
-245.2500145401715
 21
-201.6750080026964
 31
0.0
  0
LINE
  5
188
330
4E
100
AcDbEntity
  8
0
  6
Continuous
 62
     7
100
AcDbLine
 10
-246.8000148488137
 20
-206.4250080026964
 30
0.0
 11
-245.2500145401716
 21
-206.4250080026964
 31
0.0
  0
LINE
  5
189
330
4E
100
AcDbEntity
  8
0
  6
Continuous
 62
     7
100
AcDbLine
 10
-247.4832856835842
 20
-206.4250080026964
 30
0.0
 11
-246.8000148488137
 21
-206.4250080026964
 31
0.0
  0
LINE
  5
18A
330
4E
100
AcDbEntity
  8
0
  6
Continuous
 62
     7
100
AcDbLine
 10
-246.8000148488137
 20
-202.7250080026964
 30
0.0
 11
-247.4832856835842
 21
-202.7250080026964
 31
0.0
  0
LINE
  5
18B
330
4E
100
AcDbEntity
  8
0
  6
Continuous
 62
     7
100
AcDbLine
 10
-247.751543582852
 20
-203.1079182138199
 30
0.0
 11
-247.751543582852
 21
-206.0420977915729
 31
0.0
  0
LINE
  5
18C
330
4E
100
AcDbEntity
  8
0
  6
Continuous
 62
     7
100
AcDbLine
 10
-246.8000148488137
 20
-202.7250080026964
 30
0.0
 11
-246.8000148488137
 21
-206.4250080026964
 31
0.0
  0
LINE
  5
18D
330
4E
100
AcDbEntity
  8
0
  6
Continuous
 62
     7
100
AcDbLine
 10
-246.4500145401715
 20
-207.2150837591852
 30
0.0
 11
-246.4500145401715
 21
-207.4750080026964
 31
0.0
  0
LINE
  5
18E
330
4E
100
AcDbEntity
  8
0
  6
Continuous
 62
     7
100
AcDbLine
 10
-238.788336470298
 20
-207.4750080026964
 30
0.0
 11
-238.1500145401712
 21
-207.4750080026964
 31
0.0
  0
LINE
  5
18F
330
4E
100
AcDbEntity
  8
0
  6
Continuous
 62
     7
100
AcDbLine
 10
-238.788336470298
 20
-201.3250080026964
 30
0.0
 11
-238.1500145401712
 21
-201.3250080026964
 31
0.0
  0
LINE
  5
190
330
4E
100
AcDbEntity
  8
0
  6
Continuous
 62
     7
100
AcDbLine
 10
-239.7519806320979
 20
-201.3250080026964
 30
0.0
 11
-238.788336470298
 21
-201.3250080026964
 31
0.0
  0
LINE
  5
191
330
4E
100
AcDbEntity
  8
0
  6
Continuous
 62
     7
100
AcDbLine
 10
-238.1500145401712
 20
-207.4750080026964
 30
0.0
 11
-238.1500145401712
 21
-201.3250080026964
 31
0.0
  0
LINE
  5
192
330
4E
100
AcDbEntity
  8
0
  6
Continuous
 62
     7
100
AcDbLine
 10
-239.7519806320979
 20
-207.4750080026964
 30
0.0
 11
-239.7519806320979
 21
-201.3250080026964
 31
0.0
  0
LINE
  5
193
330
4E
100
AcDbEntity
  8
0
  6
Continuous
 62
     7
100
AcDbLine
 10
-240.1102087695195
 20
-207.4750080026964
 30
0.0
 11
-240.1102087695195
 21
-201.3250080026964
 31
0.0
  0
LINE
  5
194
330
4E
100
AcDbEntity
  8
0
  6
Continuous
 62
     7
100
AcDbLine
 10
-239.7519806320979
 20
-201.3250080026964
 30
0.0
 11
-239.8522488718747
 21
-201.3250080026964
 31
0.0
  0
LINE
  5
195
330
4E
100
AcDbEntity
  8
0
  6
Continuous
 62
     7
100
AcDbLine
 10
-239.8522488718747
 20
-201.3250080026964
 30
0.0
 11
-240.1102087695195
 21
-201.3250080026964
 31
0.0
  0
LINE
  5
196
330
4E
100
AcDbEntity
  8
0
  6
Continuous
 62
     7
100
AcDbLine
 10
-245.2500145401715
 20
-201.6750080026964
 30
0.0
 11
-244.6500145401716
 21
-201.6750080026964
 31
0.0
  0
LINE
  5
197
330
4E
100
AcDbEntity
  8
0
  6
Continuous
 62
     7
100
AcDbLine
 10
-244.6500145402048
 20
-202.7250080026964
 30
0.0
 11
-245.2500145401716
 21
-202.7250080026964
 31
0.0
  0
LINE
  5
198
330
4E
100
AcDbEntity
  8
0
  6
Continuous
 62
     7
100
AcDbLine
 10
-245.2500145401716
 20
-202.7250080026964
 30
0.0
 11
-246.8000148488137
 21
-202.7250080026964
 31
0.0
  0
LINE
  5
199
330
4E
100
AcDbEntity
  8
0
  6
Continuous
 62
     7
100
AcDbLine
 10
-243.2000145401715
 20
-204.975008002693
 30
0.0
 11
-243.2000145401715
 21
-204.1750080026964
 31
0.0
  0
LINE
  5
19A
330
4E
100
AcDbEntity
  8
0
  6
Continuous
 62
     7
100
AcDbLine
 10
-280.7454771290921
 20
-201.9750080026964
 30
0.0
 11
-280.7454771290921
 21
-206.8250080026964
 31
0.0
  0
LINE
  5
19B
330
4E
100
AcDbEntity
  8
0
  6
Continuous
 62
     7
100
AcDbLine
 10
-281.4500145401715
 20
-206.8250080026964
 30
0.0
 11
-281.4500145401715
 21
-201.9750080026964
 31
0.0
  0
LINE
  5
19C
330
4E
100
AcDbEntity
  8
0
  6
Continuous
 62
     7
100
AcDbLine
 10
-266.8500145401715
 20
-201.9750080026964
 30
0.0
 11
-266.8500145401715
 21
-201.3250080026964
 31
0.0
  0
LINE
  5
19D
330
4E
100
AcDbEntity
  8
0
  6
Continuous
 62
     7
100
AcDbLine
 10
-266.8500145401715
 20
-206.8250080026964
 30
0.0
 11
-266.8500145401715
 21
-201.9750080026964
 31
0.0
  0
LINE
  5
19E
330
4E
100
AcDbEntity
  8
0
  6
Continuous
 62
     7
100
AcDbLine
 10
-270.00001454019
 20
-201.9750080026964
 30
0.0
 11
-266.8500145401715
 21
-201.9750080026964
 31
0.0
  0
LINE
  5
19F
330
4E
100
AcDbEntity
  8
0
  6
Continuous
 62
     7
100
AcDbLine
 10
-274.8500145401712
 20
-201.9750080026964
 30
0.0
 11
-274.8500145401712
 21
-201.3250080026964
 31
0.0
  0
LINE
  5
1A0
330
4E
100
AcDbEntity
  8
0
  6
Continuous
 62
     7
100
AcDbLine
 10
-274.8500145401712
 20
-206.8250080026964
 30
0.0
 11
-274.8500145401712
 21
-201.9750080026964
 31
0.0
  0
LINE
  5
1A1
330
4E
100
AcDbEntity
  8
0
  6
Continuous
 62
     7
100
AcDbLine
 10
-270.00001454019
 20
-201.9750080026964
 30
0.0
 11
-270.00001454019
 21
-206.8250080026964
 31
0.0
  0
LINE
  5
1A2
330
4E
100
AcDbEntity
  8
0
  6
Continuous
 62
     7
100
AcDbLine
 10
-271.7000145401518
 20
-201.9750080026964
 30
0.0
 11
-271.7000145401518
 21
-206.8250080026964
 31
0.0
  0
LINE
  5
1A3
330
4E
100
AcDbEntity
  8
0
  6
Continuous
 62
     7
100
AcDbLine
 10
-276.9500145401715
 20
-201.9750080026964
 30
0.0
 11
-276.9500145401715
 21
-206.8250080026964
 31
0.0
  0
LINE
  5
1A4
330
4E
100
AcDbEntity
  8
0
  6
Continuous
 62
     7
100
AcDbLine
 10
-266.1315148208656
 20
-201.3250080026964
 30
0.0
 11
-266.1315148208656
 21
-207.4750080026964
 31
0.0
  0
LINE
  5
1A5
330
4E
100
AcDbEntity
  8
0
  6
Continuous
 62
     7
100
AcDbLine
 10
-264.4596689151462
 20
-201.3250080026964
 30
0.0
 11
-264.4596689151462
 21
-207.4750080026964
 31
0.0
  0
LINE
  5
1A6
330
4E
100
AcDbEntity
  8
0
  6
Continuous
 62
     7
100
AcDbLine
 10
-274.8500145401712
 20
-201.9750080026964
 30
0.0
 11
-271.7000145401518
 21
-201.9750080026964
 31
0.0
  0
LINE
  5
1A7
330
4E
100
AcDbEntity
  8
0
  6
Continuous
 62
     7
100
AcDbLine
 10
-275.5685142594762
 20
-201.3250080026964
 30
0.0
 11
-275.5685142594762
 21
-207.4750080026964
 31
0.0
  0
LINE
  5
1A8
330
4E
100
AcDbEntity
  8
0
  6
Continuous
 62
     7
100
AcDbLine
 10
-263.5346160730855
 20
-201.3250080026964
 30
0.0
 11
-263.5346160730855
 21
-207.4750080026964
 31
0.0
  0
LINE
  5
1A9
330
4E
100
AcDbEntity
  8
0
  6
Continuous
 62
     7
100
AcDbLine
 10
-293.411692610046
 20
-201.3250080026964
 30
0.0
 11
-294.0500145401708
 21
-201.3250080026964
 31
0.0
  0
LINE
  5
1AA
330
4E
100
AcDbEntity
  8
0
  6
Continuous
 62
     7
100
AcDbLine
 10
-294.0500145401708
 20
-201.3250080026964
 30
0.0
 11
-294.0500145401708
 21
-207.4750080026964
 31
0.0
  0
LINE
  5
1AB
330
4E
100
AcDbEntity
  8
0
  6
Continuous
 62
     7
100
AcDbLine
 10
-293.4116926100459
 20
-207.4750080026964
 30
0.0
 11
-293.411692610046
 21
-201.3250080026964
 31
0.0
  0
LINE
  5
1AC
330
4E
100
AcDbEntity
  8
0
  6
Continuous
 62
     7
100
AcDbLine
 10
-285.4000142315302
 20
-202.7250080026964
 30
0.0
 11
-285.4000142315302
 21
-206.4250080026964
 31
0.0
  0
LINE
  5
1AD
330
4E
100
AcDbEntity
  8
0
  6
Continuous
 62
     7
100
AcDbLine
 10
-292.0898203108245
 20
-207.4750080026964
 30
0.0
 11
-292.0898203108245
 21
-201.3250080026964
 31
0.0
  0
LINE
  5
1AE
330
4E
100
AcDbEntity
  8
0
  6
Continuous
 62
     7
100
AcDbLine
 10
-292.3477802084692
 20
-201.3250080026964
 30
0.0
 11
-292.3477802084692
 21
-207.4750080026964
 31
0.0
  0
LINE
  5
1AF
330
4E
100
AcDbEntity
  8
0
  6
Continuous
 62
     7
100
AcDbLine
 10
-292.4480484482452
 20
-207.4750080026964
 30
0.0
 11
-292.4480484482452
 21
-201.3250080026964
 31
0.0
  0
LINE
  5
1B0
330
4E
100
AcDbEntity
  8
0
  6
Continuous
 62
     7
100
AcDbLine
 10
-280.7454771290921
 20
-201.9750080026964
 30
0.0
 11
-281.4500145401715
 21
-201.9750080026964
 31
0.0
  0
LINE
  5
1B1
330
4E
100
AcDbEntity
  8
0
  6
Continuous
 62
     7
100
AcDbLine
 10
-251.4545519512518
 20
-201.9750080026964
 30
0.0
 11
-255.2500145401723
 21
-201.9750080026964
 31
0.0
  0
LINE
  5
1B2
330
4E
100
AcDbEntity
  8
0
  6
Continuous
 62
     7
100
AcDbLine
 10
-250.7500145401724
 20
-201.9750080026964
 30
0.0
 11
-251.4545519512518
 21
-201.9750080026964
 31
0.0
  0
LINE
  5
1B3
330
4E
100
AcDbEntity
  8
0
  6
Continuous
 62
     7
100
AcDbLine
 10
-276.9500145401715
 20
-201.9750080026964
 30
0.0
 11
-280.7454771290921
 21
-201.9750080026964
 31
0.0
  0
LINE
  5
1B4
330
4E
100
AcDbEntity
  8
0
  6
Continuous
 62
     7
100
AcDbLine
 10
-287.550014540201
 20
-206.4250080026964
 30
0.0
 11
-286.9500145401723
 21
-206.4250080026964
 31
0.0
  0
LINE
  5
1B5
330
4E
100
AcDbEntity
  8
0
  6
Continuous
 62
     2
100
AcDbLine
 10
-287.550014540201
 20
-206.4250080026964
 30
0.0
 11
-287.5500145401725
 21
-207.4750080026964
 31
0.0
  0
LINE
  5
1B6
330
4E
100
AcDbEntity
  8
0
  6
Continuous
 62
     2
100
AcDbLine
 10
-286.9500145401723
 20
-206.4250080026964
 30
0.0
 11
-286.9500145409442
 21
-207.4750080026964
 31
0.0
  0
LINE
  5
1B7
330
4E
100
AcDbEntity
  8
0
  6
Continuous
 62
     7
100
AcDbLine
 10
-284.7167433967597
 20
-206.4250080026964
 30
0.0
 11
-285.4000142315302
 21
-206.4250080026964
 31
0.0
  0
LINE
  5
1B8
330
4E
100
AcDbEntity
  8
0
  6
Continuous
 62
     7
100
AcDbLine
 10
-285.4000142315302
 20
-206.4250080026964
 30
0.0
 11
-286.9500145401723
 21
-206.4250080026964
 31
0.0
  0
LINE
  5
1B9
330
4E
100
AcDbEntity
  8
0
  6
Continuous
 62
     2
100
AcDbLine
 10
-287.7500145401724
 20
-207.4750080026964
 30
0.0
 11
-287.7500145401724
 21
-207.4681032309943
 31
0.0
  0
LINE
  5
1BA
330
4E
100
AcDbEntity
  8
0
  6
Continuous
 62
     2
100
AcDbLine
 10
-286.7500145401724
 20
-207.4750080026964
 30
0.0
 11
-286.7500145401724
 21
-207.4681032309943
 31
0.0
  0
LINE
  5
1BB
330
4E
100
AcDbEntity
  8
0
  6
Continuous
 62
     7
100
AcDbLine
 10
-286.7500145401724
 20
-207.4750080026964
 30
0.0
 11
-285.7500145401725
 21
-207.4750080026964
 31
0.0
  0
LINE
  5
1BC
330
4E
100
AcDbEntity
  8
0
  6
Continuous
 62
     7
100
AcDbLine
 10
-287.7500145401724
 20
-207.4750080026964
 30
0.0
 11
-287.5500145401725
 21
-207.4750080026964
 31
0.0
  0
LINE
  5
1BD
330
4E
100
AcDbEntity
  8
0
  6
Continuous
 62
     7
100
AcDbLine
 10
-286.7500145401724
 20
-207.4750080026964
 30
0.0
 11
-286.9500145409442
 21
-207.4750080026964
 31
0.0
  0
LINE
  5
1BE
330
4E
100
AcDbEntity
  8
0
  6
Continuous
 62
     7
100
AcDbLine
 10
-287.5500145401725
 20
-207.4750080026964
 30
0.0
 11
-286.9500145409442
 21
-207.4750080026964
 31
0.0
  0
LINE
  5
1BF
330
4E
100
AcDbEntity
  8
0
  6
Continuous
 62
     7
100
AcDbLine
 10
-285.7500145401725
 20
-207.2150837591852
 30
0.0
 11
-285.7500145401725
 21
-207.4750080026964
 31
0.0
  0
LINE
  5
1C0
330
4E
100
AcDbEntity
  8
0
  6
Continuous
 62
     7
100
AcDbLine
 10
-288.7500145401723
 20
-207.2150837591852
 30
0.0
 11
-288.7500145401723
 21
-207.4750080026964
 31
0.0
  0
LINE
  5
1C1
330
4E
100
AcDbEntity
  8
0
  6
Continuous
 62
     7
100
AcDbLine
 10
-292.0898203108245
 20
-207.4750080026964
 30
0.0
 11
-288.7500145401723
 21
-207.4750080026964
 31
0.0
  0
LINE
  5
1C2
330
4E
100
AcDbEntity
  8
0
  6
Continuous
 62
     7
100
AcDbLine
 10
-292.4480484482452
 20
-207.4750080026964
 30
0.0
 11
-293.4116926100459
 21
-207.4750080026964
 31
0.0
  0
LINE
  5
1C3
330
4E
100
AcDbEntity
  8
0
  6
Continuous
 62
     7
100
AcDbLine
 10
-293.4116926100459
 20
-207.4750080026964
 30
0.0
 11
-294.0500145401708
 21
-207.4750080026964
 31
0.0
  0
LINE
  5
1C4
330
4E
100
AcDbEntity
  8
0
  6
Continuous
 62
     7
100
AcDbLine
 10
-292.3477802084692
 20
-207.4750080026964
 30
0.0
 11
-292.4480484482452
 21
-207.4750080026964
 31
0.0
  0
LINE
  5
1C5
330
4E
100
AcDbEntity
  8
0
  6
Continuous
 62
     7
100
AcDbLine
 10
-292.0898203108245
 20
-207.4750080026964
 30
0.0
 11
-292.3477802084692
 21
-207.4750080026964
 31
0.0
  0
LINE
  5
1C6
330
4E
100
AcDbEntity
  8
0
  6
Continuous
 62
     7
100
AcDbLine
 10
-287.7500145401724
 20
-207.4750080026964
 30
0.0
 11
-288.7500145401723
 21
-207.4750080026964
 31
0.0
  0
LINE
  5
1C7
330
4E
100
AcDbEntity
  8
0
  6
Continuous
 62
     7
100
AcDbLine
 10
-251.4545519512518
 20
-201.9750080026964
 30
0.0
 11
-251.4545519512518
 21
-206.8250080026964
 31
0.0
  0
LINE
  5
1C8
330
4E
100
AcDbEntity
  8
0
  6
Continuous
 62
     2
100
AcDbLine
 10
-245.2500145401716
 20
-206.4250080026964
 30
0.0
 11
-245.250014539657
 21
-207.4750080026964
 31
0.0
  0
LINE
  5
1C9
330
4E
100
AcDbEntity
  8
0
  6
Continuous
 62
     2
100
AcDbLine
 10
-244.6500145401429
 20
-206.4250080026964
 30
0.0
 11
-244.6500145401715
 21
-207.4750080026964
 31
0.0
  0
LINE
  5
1CA
330
4E
100
AcDbEntity
  8
0
  6
Continuous
 62
     7
100
AcDbLine
 10
-250.7500145401724
 20
-201.9750080026964
 30
0.0
 11
-250.7500145401724
 21
-206.8250080026964
 31
0.0
  0
LINE
  5
1CB
330
4E
100
AcDbEntity
  8
0
  6
Continuous
 62
     7
100
AcDbLine
 10
-255.2500145401723
 20
-206.8250080026964
 30
0.0
 11
-255.2500145401723
 21
-201.9750080026964
 31
0.0
  0
LINE
  5
1CC
330
4E
100
AcDbEntity
  8
0
  6
Continuous
 62
     7
100
AcDbLine
 10
-257.3403601651939
 20
-201.3250080026964
 30
0.0
 11
-257.3403601651939
 21
-207.4750080026964
 31
0.0
  0
LINE
  5
1CD
330
4E
100
AcDbEntity
  8
0
  6
Continuous
 62
     7
100
AcDbLine
 10
-258.2654130072576
 20
-201.3250080026964
 30
0.0
 11
-258.2654130072576
 21
-207.4750080026964
 31
0.0
  0
ARC
  5
1CE
330
4E
100
AcDbEntity
  8
0
  6
Continuous
 62
     7
100
AcDbCircle
 10
-245.2500145401715
 20
-204.5750080026964
 30
0.0
 40
2.900000000000023
100
AcDbArc
 50
266.0454278779089
 51
270.0000000101649
  0
ARC
  5
1CF
330
4E
100
AcDbEntity
  8
0
  6
Continuous
 62
     7
100
AcDbCircle
 10
-244.6500145401717
 20
-204.5750080026964
 30
0.0
 40
2.900000000000006
100
AcDbArc
 50
270.0000000000039
 51
273.9545721220928
  0
ARC
  5
1D0
330
4E
100
AcDbEntity
  8
0
  6
Continuous
 62
     7
100
AcDbCircle
 10
-245.2500145401715
 20
-204.5750080026964
 30
0.0
 40
2.900000000000003
100
AcDbArc
 50
245.5566645723023
 51
266.0454278779089
  0
ARC
  5
1D1
330
4E
100
AcDbEntity
  8
0
  6
Continuous
 62
     7
100
AcDbCircle
 10
-286.9500145401725
 20
-204.5750080026964
 30
0.0
 40
2.900000000000042
100
AcDbArc
 50
329.6093483135505
 51
30.39065168644949
  0
ARC
  5
1D2
330
4E
100
AcDbEntity
  8
0
  6
Continuous
 62
     7
100
AcDbCircle
 10
-286.9500145401725
 20
-204.5750080026964
 30
0.0
 40
2.900000000000042
100
AcDbArc
 50
30.39065168644949
 51
39.6377143906654
  0
ARC
  5
1D3
330
4E
100
AcDbEntity
  8
0
  6
Continuous
 62
     7
100
AcDbCircle
 10
-287.5500145401724
 20
-204.1750080026964
 30
0.0
 40
1.449999999999989
100
AcDbArc
 50
89.99999999868378
 51
180.0
  0
ARC
  5
1D4
330
4E
100
AcDbEntity
  8
0
  6
Continuous
 62
     7
100
AcDbCircle
 10
-244.6500145401717
 20
-204.5750080026964
 30
0.0
 40
2.90000000000003
100
AcDbArc
 50
273.9545721220928
 51
294.4433354276972
  0
ARC
  5
1D5
330
4E
100
AcDbEntity
  8
0
  6
Continuous
 62
     7
100
AcDbCircle
 10
-244.6500145401714
 20
-204.9750080026964
 30
0.0
 40
1.449999999999989
100
AcDbArc
 50
270.0000000011264
 51
0.00000000013477
  0
ARC
  5
1D6
330
4E
100
AcDbEntity
  8
0
  6
Continuous
 62
     7
100
AcDbCircle
 10
-244.6500145401715
 20
-204.1750080026964
 30
0.0
 40
1.449999999999989
100
AcDbArc
 50
0.0
 51
90.00000000131625
  0
ARC
  5
1D7
330
4E
100
AcDbEntity
  8
0
  6
Continuous
 62
     7
100
AcDbCircle
 10
-245.2500145401715
 20
-204.5750080026964
 30
0.0
 40
2.89999999999998
100
AcDbArc
 50
140.3622856093332
 51
149.6093483135497
  0
ARC
  5
1D8
330
4E
100
AcDbEntity
  8
0
  6
Continuous
 62
     7
100
AcDbCircle
 10
-245.2500145401715
 20
-204.5750080026964
 30
0.0
 40
2.899999999999968
100
AcDbArc
 50
149.6093483135497
 51
210.3906516864503
  0
ARC
  5
1D9
330
4E
100
AcDbEntity
  8
0
  6
Continuous
 62
     7
100
AcDbCircle
 10
-245.2500145401715
 20
-204.5750080026964
 30
0.0
 40
2.89999999999998
100
AcDbArc
 50
219.6377143906669
 51
245.5566645723023
  0
ARC
  5
1DA
330
4E
100
AcDbEntity
  8
0
  6
Continuous
 62
     7
100
AcDbCircle
 10
-245.2500145401715
 20
-204.5750080026964
 30
0.0
 40
2.899999999999968
100
AcDbArc
 50
210.3906516864503
 51
219.6377143906669
  0
ARC
  5
1DB
330
4E
100
AcDbEntity
  8
0
  6
Continuous
 62
     7
100
AcDbCircle
 10
-245.2500145401715
 20
-204.5750080026964
 30
0.0
 40
2.900000000000006
100
AcDbArc
 50
90.0
 51
140.3622856093332
  0
ARC
  5
1DC
330
4E
100
AcDbEntity
  8
0
  6
Continuous
 62
     7
100
AcDbCircle
 10
-244.6500145401717
 20
-204.5750080026964
 30
0.0
 40
2.899999999999991
100
AcDbArc
 50
294.4433354276972
 51
89.99999999999832
  0
ARC
  5
1DD
330
4E
100
AcDbEntity
  8
0
  6
Continuous
 62
     7
100
AcDbCircle
 10
-287.5500145401724
 20
-204.5750080026964
 30
0.0
 40
2.900000000000006
100
AcDbArc
 50
90.0
 51
245.5566645723048
  0
ARC
  5
1DE
330
4E
100
AcDbEntity
  8
0
  6
Continuous
 62
     7
100
AcDbCircle
 10
-287.5500145401724
 20
-204.9750080026964
 30
0.0
 40
1.449999999999875
100
AcDbArc
 50
179.9999999998653
 51
269.9999999988702
  0
ARC
  5
1DF
330
4E
100
AcDbEntity
  8
0
  6
Continuous
 62
     7
100
AcDbCircle
 10
-286.9500145401725
 20
-204.5750080026964
 30
0.0
 40
2.900000000000067
100
AcDbArc
 50
320.3622856093346
 51
329.6093483135505
  0
ARC
  5
1E0
330
4E
100
AcDbEntity
  8
0
  6
Continuous
 62
     7
100
AcDbCircle
 10
-286.9500145401725
 20
-204.5750080026964
 30
0.0
 40
2.90000000000003
100
AcDbArc
 50
273.9545721220928
 51
294.4433354276972
  0
ARC
  5
1E1
330
4E
100
AcDbEntity
  8
0
  6
Continuous
 62
     7
100
AcDbCircle
 10
-287.5500145401724
 20
-204.5750080026964
 30
0.0
 40
2.900000000000022
100
AcDbArc
 50
266.0454278779094
 51
269.9999999999978
  0
ARC
  5
1E2
330
4E
100
AcDbEntity
  8
0
  6
Continuous
 62
     7
100
AcDbCircle
 10
-286.9500145401725
 20
-204.5750080026964
 30
0.0
 40
2.900000000000006
100
AcDbArc
 50
269.9999999847533
 51
273.9545721220928
  0
ARC
  5
1E3
330
4E
100
AcDbEntity
  8
0
  6
Continuous
 62
     7
100
AcDbCircle
 10
-287.5500145401724
 20
-204.5750080026964
 30
0.0
 40
2.899999999999944
100
AcDbArc
 50
245.5566645723048
 51
266.0454278779094
  0
ARC
  5
1E4
330
4E
100
AcDbEntity
  8
0
  6
Continuous
 62
     7
100
AcDbCircle
 10
-286.9500145401725
 20
-204.5750080026964
 30
0.0
 40
2.899999999999991
100
AcDbArc
 50
294.4433354276972
 51
320.3622856093346
  0
ARC
  5
1E5
330
4E
100
AcDbEntity
  8
0
  6
Continuous
 62
     7
100
AcDbCircle
 10
-286.9500145401725
 20
-204.5750080026964
 30
0.0
 40
2.900000000000067
100
AcDbArc
 50
39.6377143906654
 51
90.0
  0
ENDBLK
  5
50
330
4E
100
AcDbEntity
  8
0
100
AcDbBlockEnd
  0
BLOCK
  5
53
330
51
100
AcDbEntity
  8
0
100
AcDbBlockBegin
  2
Drfsicht1
 70
     0
 10
-266.1000144332276
 20
-204.4000079550227
 30
0.0
  3
Drfsicht1
  1

  0
INSERT
  5
52
330
51
100
AcDbEntity
  8
0
100
AcDbBlockReference
  2
ST_4_DIO_1N_5408_R_L-select__2
 10
-294.0500145401708
 20
-207.4750080026964
 30
0.0
  0
MTEXT
  5
1E6
330
51
100
AcDbEntity
  8
1
 62
     6
100
AcDbMText
 10
-270.900014540171
 20
-219.4750080026964
 30
0.0
 40
5.0
 41
0.0
 71
     2
 72
     1
  1
 
  7
CONVERTER_11
 73
     1
 44
1.32052821128451
  0
DIMENSION
  5
1F3
330
51
100
AcDbEntity
  8
1
100
AcDbDimension
  2
*D17
 10
-298.3000145401708
 20
-207.4750080026964
 30
0.0
 11
-301.7250145401708
 21
-204.4000080026964
 31
0.0
 70
    33
  1
<>
 71
     5
 42
-1.0
 53
90.0
  3
ME10_DIM_10
100
AcDbAlignedDimension
 13
-294.0500145401708
 23
-201.3250080026964
 33
0.0
 14
-294.0500145401708
 24
-207.4750080026964
 34
0.0
  0
ENDBLK
  5
54
330
51
100
AcDbEntity
  8
0
100
AcDbBlockEnd
  0
BLOCK
  5
56
330
55
100
AcDbEntity
  8
0
100
AcDbBlockBegin
  2
ST_4_DIO_1N_5408_R_L-select__3
 70
     0
 10
-181.4499998930564
 20
-154.6250000000003
 30
0.0
  3
ST_4_DIO_1N_5408_R_L-select__3
  1

  0
LINE
  5
1F4
330
55
100
AcDbEntity
  8
0
  6
Continuous
 62
     7
100
AcDbLine
 10
-125.549999893056
 20
-151.5250000000002
 30
0.0
 11
-125.549999893056
 21
-154.6250000000003
 31
0.0
  0
LINE
  5
1F5
330
55
100
AcDbEntity
  8
0
  6
Continuous
 62
     7
100
AcDbLine
 10
-136.2499998930566
 20
-149.7249999999999
 30
0.0
 11
-136.2499998930567
 21
-148.6249999999806
 31
0.0
  0
LINE
  5
1F6
330
55
100
AcDbEntity
  8
0
  6
Continuous
 62
     7
100
AcDbLine
 10
-137.5499998930559
 20
-150.0733339501604
 30
0.0
 11
-136.2499998930566
 21
-149.7249999999999
 31
0.0
  0
LINE
  5
1F7
330
55
100
AcDbEntity
  8
0
  6
Continuous
 62
     7
100
AcDbLine
 10
-137.5499998930559
 20
-150.5250000000027
 30
0.0
 11
-137.5499998930559
 21
-150.0733339501604
 31
0.0
  0
LINE
  5
1F8
330
55
100
AcDbEntity
  8
0
  6
Continuous
 62
     7
100
AcDbLine
 10
-138.402128057091
 20
-142.0249999999995
 30
0.0
 11
-138.966851876684
 21
-142.0249999999995
 31
0.0
  0
LINE
  5
1F9
330
55
100
AcDbEntity
  8
0
  6
Continuous
 62
     7
100
AcDbLine
 10
-139.4498147898284
 20
-142.654409522551
 30
0.0
 11
-137.8499998930558
 21
-148.6250000000001
 31
0.0
  0
LINE
  5
1FA
330
55
100
AcDbEntity
  8
0
  6
Continuous
 62
     7
100
AcDbLine
 10
-137.8499998930558
 20
-148.6250000000001
 30
0.0
 11
-170.9499998930563
 21
-148.6250000000001
 31
0.0
  0
LINE
  5
1FB
330
55
100
AcDbEntity
  8
0
  6
Continuous
 62
     7
100
AcDbLine
 10
-170.9499998930563
 20
-148.6250000000001
 30
0.0
 11
-170.9499998930563
 21
-149.7249999999999
 31
0.0
  0
LINE
  5
1FC
330
55
100
AcDbEntity
  8
0
  6
Continuous
 62
     7
100
AcDbLine
 10
-170.9499998930563
 20
-149.7249999999999
 30
0.0
 11
-169.6499998930561
 21
-150.0733339501604
 31
0.0
  0
LINE
  5
1FD
330
55
100
AcDbEntity
  8
0
  6
Continuous
 62
     7
100
AcDbLine
 10
-169.6499998930561
 20
-150.0733339501604
 30
0.0
 11
-169.6499998930559
 21
-150.5250000000006
 31
0.0
  0
LINE
  5
1FE
330
55
100
AcDbEntity
  8
0
  6
Continuous
 62
     7
100
AcDbLine
 10
-129.149999893056
 20
-142.0249999999992
 30
0.0
 11
-129.149999893056
 21
-150.6250000000004
 31
0.0
  0
LINE
  5
1FF
330
55
100
AcDbEntity
  8
0
  6
Continuous
 62
     7
100
AcDbLine
 10
-126.4499998930566
 20
-150.6250000000004
 30
0.0
 11
-129.149999893056
 21
-150.6250000000004
 31
0.0
  0
LINE
  5
200
330
55
100
AcDbEntity
  8
0
  6
Continuous
 62
     7
100
AcDbLine
 10
-136.2499998930567
 20
-148.6249999999806
 30
0.0
 11
-137.9191651439465
 21
-142.3955904774479
 31
0.0
  0
LINE
  5
201
330
55
100
AcDbEntity
  8
0
  6
Continuous
 62
     7
100
AcDbLine
 10
-125.549999893056
 20
-154.6250000000003
 30
0.0
 11
-135.8910562399236
 21
-154.6249999999999
 31
0.0
  0
LINE
  5
202
330
55
100
AcDbEntity
  8
0
  6
Continuous
 62
     7
100
AcDbLine
 10
-126.1243918641506
 20
-126.5926313374675
 30
0.0
 11
-126.1883218231816
 21
-126.3540414822373
 31
0.0
  0
LINE
  5
203
330
55
100
AcDbEntity
  8
0
  6
Continuous
 62
     7
100
AcDbLine
 10
-125.5499998930561
 20
-126.5250793279206
 30
0.0
 11
-125.5499998930561
 21
-131.4250000000014
 31
0.0
  0
LINE
  5
204
330
55
100
AcDbEntity
  8
0
  6
Continuous
 62
     7
100
AcDbLine
 10
-127.1519659849824
 20
-126.8938508978027
 30
0.0
 11
-126.1179213880266
 21
-126.6167794831111
 31
0.0
  0
LINE
  5
205
330
55
100
AcDbEntity
  8
0
  6
Continuous
 62
     7
100
AcDbLine
 10
-144.7499998930563
 20
-125.3750000000015
 30
0.0
 11
-144.7499998930563
 21
-121.0749999999981
 31
0.0
  0
LINE
  5
206
330
55
100
AcDbEntity
  8
0
  6
Continuous
 62
     7
100
AcDbLine
 10
-152.7499998930561
 20
-121.0750000000026
 30
0.0
 11
-152.7499998930562
 21
-125.3750000000024
 31
0.0
  0
LINE
  5
207
330
55
100
AcDbEntity
  8
0
  6
Continuous
 62
     7
100
AcDbLine
 10
-180.8116779629296
 20
-126.3540414822373
 30
0.0
 11
-180.8756079219604
 21
-126.5926313374664
 31
0.0
  0
LINE
  5
208
330
55
100
AcDbEntity
  8
0
  6
Continuous
 62
     7
100
AcDbLine
 10
-179.3154483729675
 20
-120.7700366327078
 30
0.0
 11
-179.7477655613528
 21
-120.3377194443236
 31
0.0
  0
LINE
  5
209
330
55
100
AcDbEntity
  8
0
  6
Continuous
 62
     7
100
AcDbLine
 10
-179.4898056637081
 20
-119.3749999999999
 30
0.0
 11
-162.2596542680337
 21
-119.3749999999999
 31
0.0
  0
LINE
  5
20A
330
55
100
AcDbEntity
  8
0
  6
Continuous
 62
     7
100
AcDbLine
 10
-179.2515184139407
 20
-120.531446777493
 30
0.0
 11
-179.3154483729675
 21
-120.7700366327078
 31
0.0
  0
LINE
  5
20B
330
55
100
AcDbEntity
  8
0
  6
Continuous
 62
     7
100
AcDbLine
 10
-179.7477655613528
 20
-120.3377194443236
 30
0.0
 11
-179.4898056637081
 21
-119.3749999999999
 31
0.0
  0
LINE
  5
20C
330
55
100
AcDbEntity
  8
0
  6
Continuous
 62
     7
100
AcDbLine
 10
-178.2110033408552
 20
-120.7843700465247
 30
0.0
 11
-179.2450479378121
 21
-120.5072986318325
 31
0.0
  0
LINE
  5
20D
330
55
100
AcDbEntity
  8
0
  6
Continuous
 62
     7
100
AcDbLine
 10
-179.8480338011297
 20
-126.8938508978024
 30
0.0
 11
-178.2110033408552
 21
-120.7843700465247
 31
0.0
  0
LINE
  5
20E
330
55
100
AcDbEntity
  8
0
  6
Continuous
 62
     7
100
AcDbLine
 10
-180.882078398081
 20
-126.6167794830975
 30
0.0
 11
-179.8480338011297
 21
-126.8938508978024
 31
0.0
  0
LINE
  5
20F
330
55
100
AcDbEntity
  8
0
  6
Continuous
 62
     7
100
AcDbLine
 10
-181.4499998930551
 20
-126.5250793279206
 30
0.0
 11
-180.8116779629296
 21
-126.3540414822373
 31
0.0
  0
LINE
  5
210
330
55
100
AcDbEntity
  8
0
  6
Continuous
 62
     7
100
AcDbLine
 10
-181.4499998930551
 20
-131.4250000000043
 30
0.0
 11
-181.4499998930551
 21
-126.5250793279206
 31
0.0
  0
LINE
  5
211
330
55
100
AcDbEntity
  8
0
  6
Continuous
 62
     7
100
AcDbLine
 10
-181.4499998930564
 20
-145.425
 30
0.0
 11
-181.4499998930564
 21
-143.4250000000013
 31
0.0
  0
LINE
  5
212
330
55
100
AcDbEntity
  8
0
  6
Continuous
 62
     7
100
AcDbLine
 10
-171.3089435461886
 20
-154.625
 30
0.0
 11
-173.6786172266328
 21
-154.6250000000002
 31
0.0
  0
LINE
  5
213
330
55
100
AcDbEntity
  8
0
  6
Continuous
 62
     7
100
AcDbLine
 10
-152.7499998930562
 20
-125.3750000000024
 30
0.0
 11
-144.7499998930563
 21
-125.3750000000015
 31
0.0
  0
LINE
  5
214
330
55
100
AcDbEntity
  8
0
  6
Continuous
 62
     7
100
AcDbLine
 10
-126.1883218231816
 20
-126.3540414822373
 30
0.0
 11
-125.5499998930561
 21
-126.5250793279206
 31
0.0
  0
LINE
  5
215
330
55
100
AcDbEntity
  8
0
  6
Continuous
 62
     7
100
AcDbLine
 10
-161.33460142597
 20
-121.4800000000002
 30
0.0
 11
-161.8624998930575
 21
-121.4800000000002
 31
0.0
  0
LINE
  5
216
330
55
100
AcDbEntity
  8
0
  6
Continuous
 62
     7
100
AcDbLine
 10
-161.8624998930575
 20
-121.4800000000002
 30
0.0
 11
-161.8624998930575
 21
-122.5500000000002
 31
0.0
  0
LINE
  5
217
330
55
100
AcDbEntity
  8
0
  6
Continuous
 62
     7
100
AcDbLine
 10
-161.8624998930575
 20
-122.5500000000002
 30
0.0
 11
-155.5374998930574
 21
-122.5499999999998
 31
0.0
  0
LINE
  5
218
330
55
100
AcDbEntity
  8
0
  6
Continuous
 62
     7
100
AcDbLine
 10
-155.5374998930574
 20
-122.5499999999998
 30
0.0
 11
-155.5374998930574
 21
-121.4800000000002
 31
0.0
  0
LINE
  5
219
330
55
100
AcDbEntity
  8
0
  6
Continuous
 62
     7
100
AcDbLine
 10
-155.5374998930574
 20
-121.4800000000002
 30
0.0
 11
-156.065398360142
 21
-121.4800000000002
 31
0.0
  0
LINE
  5
21A
330
55
100
AcDbEntity
  8
0
  6
Continuous
 62
     7
100
AcDbLine
 10
-153.468499612362
 20
-119.375000000002
 30
0.0
 11
-152.7499998930561
 21
-121.0750000000026
 31
0.0
  0
LINE
  5
21B
330
55
100
AcDbEntity
  8
0
  6
Continuous
 62
     7
100
AcDbLine
 10
-155.1403455180814
 20
-119.3750000000018
 30
0.0
 11
-153.468499612362
 21
-119.375000000002
 31
0.0
  0
LINE
  5
21C
330
55
100
AcDbEntity
  8
0
  6
Continuous
 62
     7
100
AcDbLine
 10
-156.065398360142
 20
-121.4800000000002
 30
0.0
 11
-155.1403455180814
 21
-119.3750000000018
 31
0.0
  0
LINE
  5
21D
330
55
100
AcDbEntity
  8
0
  6
Continuous
 62
     7
100
AcDbLine
 10
-125.5499998930561
 20
-140.4250000000013
 30
0.0
 11
-125.5499998930561
 21
-142.0249999999992
 31
0.0
  0
LINE
  5
21E
330
55
100
AcDbEntity
  8
0
  6
Continuous
 62
     7
100
AcDbLine
 10
-125.5499998930561
 20
-142.0249999999992
 30
0.0
 11
-129.149999893056
 21
-142.0249999999992
 31
0.0
  0
LINE
  5
21F
330
55
100
AcDbEntity
  8
0
  6
Continuous
 62
     7
100
AcDbLine
 10
-144.0315001737514
 20
-119.3749999999999
 30
0.0
 11
-127.5101941224031
 21
-119.3749999999999
 31
0.0
  0
LINE
  5
220
330
55
100
AcDbEntity
  8
0
  6
Continuous
 62
     7
100
AcDbLine
 10
-127.7549518482992
 20
-120.5072986318325
 30
0.0
 11
-128.7889964452569
 21
-120.7843700465249
 31
0.0
  0
LINE
  5
221
330
55
100
AcDbEntity
  8
0
  6
Continuous
 62
     7
100
AcDbLine
 10
-127.6845514131437
 20
-120.7700366327078
 30
0.0
 11
-127.7484813721735
 21
-120.5314467774845
 31
0.0
  0
LINE
  5
222
330
55
100
AcDbEntity
  8
0
  6
Continuous
 62
     7
100
AcDbLine
 10
-127.2522342247584
 20
-120.3377194443236
 30
0.0
 11
-127.6845514131437
 21
-120.7700366327078
 31
0.0
  0
LINE
  5
223
330
55
100
AcDbEntity
  8
0
  6
Continuous
 62
     7
100
AcDbLine
 10
-127.5101941224031
 20
-119.3749999999999
 30
0.0
 11
-127.2522342247584
 21
-120.3377194443236
 31
0.0
  0
LINE
  5
224
330
55
100
AcDbEntity
  8
0
  6
Continuous
 62
     7
100
AcDbLine
 10
-144.7499998930563
 20
-121.0749999999981
 30
0.0
 11
-144.0315001737514
 21
-119.3749999999999
 31
0.0
  0
LINE
  5
225
330
55
100
AcDbEntity
  8
0
  6
Continuous
 62
     7
100
AcDbLine
 10
-162.2596542680337
 20
-119.3749999999999
 30
0.0
 11
-161.33460142597
 21
-121.4800000000002
 31
0.0
  0
LINE
  5
226
330
55
100
AcDbEntity
  8
0
  6
Continuous
 62
     7
100
AcDbLine
 10
-128.7889964452569
 20
-120.7843700465249
 30
0.0
 11
-127.1519659849824
 21
-126.8938508978027
 31
0.0
  0
LINE
  5
227
330
55
100
AcDbEntity
  8
0
  6
Continuous
 62
     7
100
AcDbLine
 10
-173.6786172266328
 20
-154.6250000000002
 30
0.0
 11
-181.4499998930564
 21
-145.425
 31
0.0
  0
ARC
  5
228
330
55
100
AcDbEntity
  8
0
  6
Continuous
 62
     7
100
AcDbCircle
 10
-138.402128057091
 20
-142.5249999999995
 30
0.0
 40
0.5000000000000687
100
AcDbArc
 50
15.00000000003619
 51
90.0
  0
ARC
  5
229
330
55
100
AcDbEntity
  8
0
  6
Continuous
 62
     7
100
AcDbCircle
 10
-138.966851876684
 20
-142.5249999999995
 30
0.0
 40
0.5
100
AcDbArc
 50
90.0
 51
195.0000000000301
  0
ARC
  5
22A
330
55
100
AcDbEntity
  8
0
  6
Continuous
 62
     7
100
AcDbCircle
 10
-126.4499998930566
 20
-151.5250000000002
 30
0.0
 40
0.9000000000006025
100
AcDbArc
 50
0.0
 51
90.0
  0
ARC
  5
22B
330
55
100
AcDbEntity
  8
0
  6
Continuous
 62
     7
100
AcDbCircle
 10
-125.9767717149722
 20
-126.5660175899557
 30
0.0
 40
0.1500000000002417
100
AcDbArc
 50
190.2198081557713
 51
199.7801918447565
  0
ARC
  5
22C
330
55
100
AcDbEntity
  8
0
  6
Continuous
 62
     7
100
AcDbCircle
 10
-111.2409118718019
 20
-135.9250000000014
 30
0.0
 40
15.00000000000001
100
AcDbArc
 50
162.5423968762779
 51
197.4576031237217
  0
ARC
  5
22D
330
55
100
AcDbEntity
  8
0
  6
Continuous
 62
     7
100
AcDbCircle
 10
-128.1560272136799
 20
-149.1096282117024
 30
0.0
 40
9.499999999998924
100
AcDbArc
 50
188.5681975617573
 51
215.4903233115785
  0
ARC
  5
22E
330
55
100
AcDbEntity
  8
0
  6
Continuous
 62
     7
100
AcDbCircle
 10
-181.0232280711372
 20
-126.5660175899491
 30
0.0
 40
0.1499999999995986
100
AcDbArc
 50
340.219808157988
 51
349.7801918420471
  0
ARC
  5
22F
330
55
100
AcDbEntity
  8
0
  6
Continuous
 62
     7
100
AcDbCircle
 10
-179.3926680869915
 20
-120.4806848843284
 30
0.0
 40
0.1500000000000263
100
AcDbArc
 50
340.2198081514707
 51
349.7801918471871
  0
ARC
  5
230
330
55
100
AcDbEntity
  8
0
  6
Continuous
 62
     7
100
AcDbCircle
 10
-195.197726977924
 20
-137.4250000000014
 30
0.0
 40
15.00000000000002
100
AcDbArc
 50
336.4218215217987
 51
23.57817847818957
  0
ARC
  5
231
330
55
100
AcDbEntity
  8
0
  6
Continuous
 62
     7
100
AcDbCircle
 10
-179.0439725724323
 20
-149.1096282117024
 30
0.0
 40
9.499999999999037
100
AcDbArc
 50
324.5096766884209
 51
351.4318024382556
  0
ARC
  5
232
330
55
100
AcDbEntity
  8
0
  6
Continuous
 62
     7
100
AcDbCircle
 10
-127.6073316991197
 20
-120.4806848843284
 30
0.0
 40
0.1499999999999685
100
AcDbArc
 50
190.2198081528062
 51
199.7801918450891
  0
ENDBLK
  5
57
330
55
100
AcDbEntity
  8
0
100
AcDbBlockEnd
  0
BLOCK
  5
5A
330
58
100
AcDbEntity
  8
0
100
AcDbBlockBegin
  2
Rckans1
 70
     0
 10
-153.5
 20
-137.0
 30
0.0
  3
Rckans1
  1

  0
INSERT
  5
59
330
58
100
AcDbEntity
  8
0
100
AcDbBlockReference
  2
ST_4_DIO_1N_5408_R_L-select__3
 10
-181.4499998930564
 20
-154.6250000000003
 30
0.0
  0
MTEXT
  5
233
330
58
100
AcDbEntity
  8
1
 62
     6
100
AcDbMText
 10
-153.4999998930562
 20
-159.6250000000003
 30
0.0
 40
5.0
 41
0.0
 71
     2
 72
     1
  1
 
  7
CONVERTER_11
 73
     1
 44
1.32052821128451
  0
ENDBLK
  5
5B
330
58
100
AcDbEntity
  8
0
100
AcDbBlockEnd
  0
BLOCK
  5
5D
330
5C
100
AcDbEntity
  8
0
100
AcDbBlockBegin
  2
ST_4_DIO_1N_5408_R_L-select__4
 70
     0
 10
-212.1250083774058
 20
-154.6250000000003
 30
0.0
  3
ST_4_DIO_1N_5408_R_L-select__4
  1

  0
LINE
  5
234
330
5C
100
AcDbEntity
  8
0
  6
Continuous
 62
     7
100
AcDbLine
 10
-205.9750083774057
 20
-126.3540414822373
 30
0.0
 11
-205.9750083774057
 21
-120.7843700465249
 31
0.0
  0
LINE
  5
235
330
5C
100
AcDbEntity
  8
0
  6
Continuous
 62
     7
100
AcDbLine
 10
-205.9750083774057
 20
-131.4250000000014
 30
0.0
 11
-205.9750083774057
 21
-126.5250793279206
 31
0.0
  0
LINE
  5
236
330
5C
100
AcDbEntity
  8
0
  6
Continuous
 62
     7
100
AcDbLine
 10
-205.9750083774057
 20
-142.0249999999994
 30
0.0
 11
-205.9750083774057
 21
-140.4250000000013
 31
0.0
  0
LINE
  5
237
330
5C
100
AcDbEntity
  8
0
  6
Continuous
 62
     7
100
AcDbLine
 10
-205.9750083774057
 20
-150.6250000000004
 30
0.0
 11
-205.9750083774057
 21
-142.0249999999994
 31
0.0
  0
LINE
  5
238
330
5C
100
AcDbEntity
  8
0
  6
Continuous
 62
     7
100
AcDbLine
 10
-205.9750083774057
 20
-140.4250000000013
 30
0.0
 11
-205.9750083774057
 21
-131.4250000000014
 31
0.0
  0
LINE
  5
239
330
5C
100
AcDbEntity
  8
0
  6
Continuous
 62
     7
100
AcDbLine
 10
-212.1250083774058
 20
-150.6250000000004
 30
0.0
 11
-212.1250083774058
 21
-142.0249999999994
 31
0.0
  0
LINE
  5
23A
330
5C
100
AcDbEntity
  8
0
  6
Continuous
 62
     7
100
AcDbLine
 10
-205.9750083774057
 20
-150.6250000000004
 30
0.0
 11
-205.9750083774057
 21
-151.5250000000002
 31
0.0
  0
LINE
  5
23B
330
5C
100
AcDbEntity
  8
0
  6
Continuous
 62
     7
100
AcDbLine
 10
-205.9750083774057
 20
-151.5250000000002
 30
0.0
 11
-205.9750083774057
 21
-154.6250000000003
 31
0.0
  0
LINE
  5
23C
330
5C
100
AcDbEntity
  8
0
  6
Continuous
 62
     7
100
AcDbLine
 10
-212.1250083774058
 20
-150.6250000000004
 30
0.0
 11
-212.1250083774058
 21
-151.5250000000002
 31
0.0
  0
LINE
  5
23D
330
5C
100
AcDbEntity
  8
0
  6
Continuous
 62
     7
100
AcDbLine
 10
-212.1250083774058
 20
-151.5250000000002
 30
0.0
 11
-212.1250083774058
 21
-154.6250000000003
 31
0.0
  0
LINE
  5
23E
330
5C
100
AcDbEntity
  8
0
  6
Continuous
 62
     2
100
AcDbLine
 10
-205.9750083774057
 20
-151.5250000000002
 30
0.0
 11
-212.1250083774058
 21
-151.5250000000002
 31
0.0
  0
LINE
  5
23F
330
5C
100
AcDbEntity
  8
0
  6
Continuous
 62
     7
100
AcDbLine
 10
-212.1250083774058
 20
-154.6250000000003
 30
0.0
 11
-205.9750083774057
 21
-154.6250000000003
 31
0.0
  0
LINE
  5
240
330
5C
100
AcDbEntity
  8
0
  6
Continuous
 62
     7
100
AcDbLine
 10
-212.1250083774058
 20
-150.6250000000004
 30
0.0
 11
-211.1250083774057
 21
-150.6250000000004
 31
0.0
  0
LINE
  5
241
330
5C
100
AcDbEntity
  8
0
  6
Continuous
 62
     7
100
AcDbLine
 10
-211.1250083774057
 20
-150.6250000000004
 30
0.0
 11
-205.9750083774057
 21
-150.6250000000004
 31
0.0
  0
LINE
  5
242
330
5C
100
AcDbEntity
  8
0
  6
Continuous
 62
     7
100
AcDbLine
 10
-212.1250083774058
 20
-119.3749999999999
 30
0.0
 11
-205.9750083774057
 21
-119.3749999999999
 31
0.0
  0
LINE
  5
243
330
5C
100
AcDbEntity
  8
0
  6
Continuous
 62
     7
100
AcDbLine
 10
-212.1250083774058
 20
-120.3377194443235
 30
0.0
 11
-212.1250083774058
 21
-120.7700366327078
 31
0.0
  0
LINE
  5
244
330
5C
100
AcDbEntity
  8
0
  6
Continuous
 62
     7
100
AcDbLine
 10
-205.9750083774057
 20
-120.3377194443236
 30
0.0
 11
-205.9750083774057
 21
-120.7700366327078
 31
0.0
  0
LINE
  5
245
330
5C
100
AcDbEntity
  8
0
  6
Continuous
 62
     7
100
AcDbLine
 10
-205.9750083774057
 20
-119.3749999999999
 30
0.0
 11
-205.9750083774057
 21
-120.3377194443236
 31
0.0
  0
LINE
  5
246
330
5C
100
AcDbEntity
  8
0
  6
Continuous
 62
     7
100
AcDbLine
 10
-212.1250083774058
 20
-120.3377194443235
 30
0.0
 11
-205.9750083774057
 21
-120.3377194443236
 31
0.0
  0
LINE
  5
247
330
5C
100
AcDbEntity
  8
0
  6
Continuous
 62
     7
100
AcDbLine
 10
-205.9750083774057
 20
-126.5250793279206
 30
0.0
 11
-205.9750083774057
 21
-126.3540414822373
 31
0.0
  0
LINE
  5
248
330
5C
100
AcDbEntity
  8
0
  6
Continuous
 62
     7
100
AcDbLine
 10
-205.9750083774057
 20
-126.3540414822373
 30
0.0
 11
-212.1250083774058
 21
-126.3540414822373
 31
0.0
  0
LINE
  5
249
330
5C
100
AcDbEntity
  8
0
  6
Continuous
 62
     7
100
AcDbLine
 10
-205.9750083774057
 20
-120.7700366327078
 30
0.0
 11
-212.1250083774058
 21
-120.7700366327078
 31
0.0
  0
LINE
  5
24A
330
5C
100
AcDbEntity
  8
0
  6
Continuous
 62
     7
100
AcDbLine
 10
-212.1250083774058
 20
-142.0249999999994
 30
0.0
 11
-205.9750083774057
 21
-142.0249999999994
 31
0.0
  0
LINE
  5
24B
330
5C
100
AcDbEntity
  8
0
  6
Continuous
 62
     7
100
AcDbLine
 10
-212.1250083774058
 20
-140.4250000000013
 30
0.0
 11
-212.1250083774058
 21
-142.0249999999994
 31
0.0
  0
LINE
  5
24C
330
5C
100
AcDbEntity
  8
0
  6
Continuous
 62
     7
100
AcDbLine
 10
-205.9750083774057
 20
-140.4250000000013
 30
0.0
 11
-212.1250083774058
 21
-140.4250000000013
 31
0.0
  0
LINE
  5
24D
330
5C
100
AcDbEntity
  8
0
  6
Continuous
 62
     7
100
AcDbLine
 10
-212.1250083774058
 20
-120.7700366327078
 30
0.0
 11
-212.1250083774058
 21
-120.7843700465249
 31
0.0
  0
LINE
  5
24E
330
5C
100
AcDbEntity
  8
0
  6
Continuous
 62
     7
100
AcDbLine
 10
-212.1250083774058
 20
-120.7843700465249
 30
0.0
 11
-212.1250083774058
 21
-126.3540414822373
 31
0.0
  0
LINE
  5
24F
330
5C
100
AcDbEntity
  8
0
  6
Continuous
 62
     7
100
AcDbLine
 10
-212.1250083774058
 20
-126.5250793279206
 30
0.0
 11
-212.1250083774058
 21
-131.4250000000014
 31
0.0
  0
LINE
  5
250
330
5C
100
AcDbEntity
  8
0
  6
Continuous
 62
     7
100
AcDbLine
 10
-212.1250083774058
 20
-140.4250000000013
 30
0.0
 11
-212.1250083774058
 21
-131.4250000000014
 31
0.0
  0
LINE
  5
251
330
5C
100
AcDbEntity
  8
0
  6
Continuous
 62
     7
100
AcDbLine
 10
-205.9750083774057
 20
-120.7700366327078
 30
0.0
 11
-205.9750083774057
 21
-120.7843700465249
 31
0.0
  0
LINE
  5
252
330
5C
100
AcDbEntity
  8
0
  6
Continuous
 62
     7
100
AcDbLine
 10
-205.9750083774057
 20
-120.7843700465249
 30
0.0
 11
-212.1250083774058
 21
-120.7843700465249
 31
0.0
  0
LINE
  5
253
330
5C
100
AcDbEntity
  8
0
  6
Continuous
 62
     7
100
AcDbLine
 10
-205.9750083774057
 20
-131.4250000000014
 30
0.0
 11
-212.1250083774058
 21
-131.4250000000014
 31
0.0
  0
LINE
  5
254
330
5C
100
AcDbEntity
  8
0
  6
Continuous
 62
     7
100
AcDbLine
 10
-212.1250083774058
 20
-126.5250793279206
 30
0.0
 11
-205.9750083774057
 21
-126.5250793279206
 31
0.0
  0
LINE
  5
255
330
5C
100
AcDbEntity
  8
0
  6
Continuous
 62
     7
100
AcDbLine
 10
-212.1250083774058
 20
-119.3749999999999
 30
0.0
 11
-212.1250083774058
 21
-120.3377194443235
 31
0.0
  0
LINE
  5
256
330
5C
100
AcDbEntity
  8
0
  6
Continuous
 62
     7
100
AcDbLine
 10
-212.1250083774058
 20
-126.3540414822373
 30
0.0
 11
-212.1250083774058
 21
-126.5250793279206
 31
0.0
  0
ENDBLK
  5
5E
330
5C
100
AcDbEntity
  8
0
100
AcDbBlockEnd
  0
BLOCK
  5
61
330
5F
100
AcDbEntity
  8
0
100
AcDbBlockBegin
  2
SA_Links1
 70
     0
 10
-209.0500084250795
 20
-137.0
 30
0.0
  3
SA_Links1
  1

  0
INSERT
  5
60
330
5F
100
AcDbEntity
  8
0
100
AcDbBlockReference
  2
ST_4_DIO_1N_5408_R_L-select__4
 10
-212.1250083774058
 20
-154.6250000000003
 30
0.0
  0
MTEXT
  5
257
330
5F
100
AcDbEntity
  8
1
 62
     6
100
AcDbMText
 10
-209.0500083774057
 20
-159.6250000000003
 30
0.0
 40
5.0
 41
0.0
 71
     2
 72
     1
  1
 
  7
CONVERTER_11
 73
     1
 44
1.32052821128451
  0
ENDBLK
  5
62
330
5F
100
AcDbEntity
  8
0
100
AcDbBlockEnd
  0
BLOCK
  5
64
330
63
100
AcDbEntity
  8
0
100
AcDbBlockBegin
  2
ST_4_DIO_1N_5408_R_L-select__5
 70
     0
 10
-344.2250239059805
 20
-154.6249999999999
 30
0.0
  3
ST_4_DIO_1N_5408_R_L-select__5
  1

  0
LINE
  5
258
330
63
100
AcDbEntity
  8
0
  6
Continuous
 62
     7
100
AcDbLine
 10
-344.2250239059805
 20
-131.4250000000043
 30
0.0
 11
-344.2250239059805
 21
-143.4250000000013
 31
0.0
  0
LINE
  5
259
330
63
100
AcDbEntity
  8
0
  6
Continuous
 62
     7
100
AcDbLine
 10
-344.2250239059805
 20
-143.4250000000013
 30
0.0
 11
-344.2250239059805
 21
-145.425
 31
0.0
  0
LINE
  5
25A
330
63
100
AcDbEntity
  8
0
  6
Continuous
 62
     7
100
AcDbLine
 10
-344.2250239059805
 20
-145.425
 30
0.0
 11
-344.2250239059805
 21
-154.6249999999999
 31
0.0
  0
LINE
  5
25B
330
63
100
AcDbEntity
  8
0
  6
Continuous
 62
     7
100
AcDbLine
 10
-344.2250239059805
 20
-126.5250793279206
 30
0.0
 11
-344.2250239059805
 21
-131.4250000000043
 31
0.0
  0
LINE
  5
25C
330
63
100
AcDbEntity
  8
0
  6
Continuous
 62
     7
100
AcDbLine
 10
-338.0750239059805
 20
-154.6249999999999
 30
0.0
 11
-338.0750239059805
 21
-145.425
 31
0.0
  0
LINE
  5
25D
330
63
100
AcDbEntity
  8
0
  6
Continuous
 62
     7
100
AcDbLine
 10
-344.2250239059805
 20
-120.7700366327078
 30
0.0
 11
-344.2250239059805
 21
-120.7843700465247
 31
0.0
  0
LINE
  5
25E
330
63
100
AcDbEntity
  8
0
  6
Continuous
 62
     7
100
AcDbLine
 10
-344.2250239059805
 20
-119.3749999999999
 30
0.0
 11
-344.2250239059805
 21
-120.3377194443236
 31
0.0
  0
LINE
  5
25F
330
63
100
AcDbEntity
  8
0
  6
Continuous
 62
     7
100
AcDbLine
 10
-338.0750239059805
 20
-120.7700366327078
 30
0.0
 11
-338.0750239059805
 21
-120.3377194443236
 31
0.0
  0
LINE
  5
260
330
63
100
AcDbEntity
  8
0
  6
Continuous
 62
     7
100
AcDbLine
 10
-344.2250239059805
 20
-120.3377194443236
 30
0.0
 11
-344.2250239059805
 21
-120.7700366327078
 31
0.0
  0
LINE
  5
261
330
63
100
AcDbEntity
  8
0
  6
Continuous
 62
     7
100
AcDbLine
 10
-344.2250239059805
 20
-120.7700366327078
 30
0.0
 11
-338.0750239059805
 21
-120.7700366327078
 31
0.0
  0
LINE
  5
262
330
63
100
AcDbEntity
  8
0
  6
Continuous
 62
     7
100
AcDbLine
 10
-344.2250239059805
 20
-119.3749999999999
 30
0.0
 11
-338.0750239059805
 21
-119.3749999999999
 31
0.0
  0
LINE
  5
263
330
63
100
AcDbEntity
  8
0
  6
Continuous
 62
     7
100
AcDbLine
 10
-338.0750239059805
 20
-120.3377194443236
 30
0.0
 11
-338.0750239059805
 21
-119.3749999999999
 31
0.0
  0
LINE
  5
264
330
63
100
AcDbEntity
  8
0
  6
Continuous
 62
     7
100
AcDbLine
 10
-344.2250239059805
 20
-120.3377194443236
 30
0.0
 11
-338.0750239059805
 21
-120.3377194443236
 31
0.0
  0
LINE
  5
265
330
63
100
AcDbEntity
  8
0
  6
Continuous
 62
     7
100
AcDbLine
 10
-344.2250239059805
 20
-126.3540414822373
 30
0.0
 11
-338.0750239059805
 21
-126.3540414822373
 31
0.0
  0
LINE
  5
266
330
63
100
AcDbEntity
  8
0
  6
Continuous
 62
     7
100
AcDbLine
 10
-344.2250239059805
 20
-120.7843700465247
 30
0.0
 11
-344.2250239059805
 21
-126.3540414822373
 31
0.0
  0
LINE
  5
267
330
63
100
AcDbEntity
  8
0
  6
Continuous
 62
     7
100
AcDbLine
 10
-338.0750239059805
 20
-120.7843700465247
 30
0.0
 11
-344.2250239059805
 21
-120.7843700465247
 31
0.0
  0
LINE
  5
268
330
63
100
AcDbEntity
  8
0
  6
Continuous
 62
     7
100
AcDbLine
 10
-344.2250239059805
 20
-126.5250793279206
 30
0.0
 11
-338.0750239059805
 21
-126.5250793279206
 31
0.0
  0
LINE
  5
269
330
63
100
AcDbEntity
  8
0
  6
Continuous
 62
     7
100
AcDbLine
 10
-338.0750239059805
 20
-131.4250000000043
 30
0.0
 11
-338.0750239059805
 21
-126.5250793279206
 31
0.0
  0
LINE
  5
26A
330
63
100
AcDbEntity
  8
0
  6
Continuous
 62
     7
100
AcDbLine
 10
-344.2250239059805
 20
-131.4250000000043
 30
0.0
 11
-338.0750239059805
 21
-131.4250000000043
 31
0.0
  0
LINE
  5
26B
330
63
100
AcDbEntity
  8
0
  6
Continuous
 62
     7
100
AcDbLine
 10
-338.0750239059805
 20
-145.425
 30
0.0
 11
-344.2250239059805
 21
-145.425
 31
0.0
  0
LINE
  5
26C
330
63
100
AcDbEntity
  8
0
  6
Continuous
 62
     7
100
AcDbLine
 10
-344.2250239059805
 20
-143.4250000000013
 30
0.0
 11
-338.0750239059805
 21
-143.4250000000013
 31
0.0
  0
LINE
  5
26D
330
63
100
AcDbEntity
  8
0
  6
Continuous
 62
     7
100
AcDbLine
 10
-344.2250239059805
 20
-126.3540414822373
 30
0.0
 11
-344.2250239059805
 21
-126.5250793279206
 31
0.0
  0
LINE
  5
26E
330
63
100
AcDbEntity
  8
0
  6
Continuous
 62
     7
100
AcDbLine
 10
-338.0750239059805
 20
-120.7843700465247
 30
0.0
 11
-338.0750239059805
 21
-120.7700366327078
 31
0.0
  0
LINE
  5
26F
330
63
100
AcDbEntity
  8
0
  6
Continuous
 62
     7
100
AcDbLine
 10
-338.0750239059805
 20
-126.5250793279206
 30
0.0
 11
-338.0750239059805
 21
-126.3540414822373
 31
0.0
  0
LINE
  5
270
330
63
100
AcDbEntity
  8
0
  6
Continuous
 62
     7
100
AcDbLine
 10
-338.0750239059805
 20
-126.3540414822373
 30
0.0
 11
-338.0750239059805
 21
-120.7843700465247
 31
0.0
  0
LINE
  5
271
330
63
100
AcDbEntity
  8
0
  6
Continuous
 62
     7
100
AcDbLine
 10
-338.0750239059805
 20
-143.4250000000013
 30
0.0
 11
-338.0750239059805
 21
-131.4250000000043
 31
0.0
  0
LINE
  5
272
330
63
100
AcDbEntity
  8
0
  6
Continuous
 62
     7
100
AcDbLine
 10
-338.0750239059805
 20
-145.425
 30
0.0
 11
-338.0750239059805
 21
-143.4250000000013
 31
0.0
  0
LINE
  5
273
330
63
100
AcDbEntity
  8
0
  6
Continuous
 62
     7
100
AcDbLine
 10
-338.0750239059805
 20
-154.6249999999999
 30
0.0
 11
-344.2250239059805
 21
-154.6249999999999
 31
0.0
  0
ENDBLK
  5
65
330
63
100
AcDbEntity
  8
0
100
AcDbBlockEnd
  0
BLOCK
  5
68
330
66
100
AcDbEntity
  8
0
100
AcDbBlockBegin
  2
SA_Rechts1
 70
     0
 10
-341.1500238583068
 20
-137.0
 30
0.0
  3
SA_Rechts1
  1

  0
INSERT
  5
67
330
66
100
AcDbEntity
  8
0
100
AcDbBlockReference
  2
ST_4_DIO_1N_5408_R_L-select__5
 10
-344.2250239059805
 20
-154.6249999999999
 30
0.0
  0
MTEXT
  5
274
330
66
100
AcDbEntity
  8
1
 62
     6
100
AcDbMText
 10
-341.1500239059805
 20
-159.6249999999999
 30
0.0
 40
5.0
 41
0.0
 71
     2
 72
     1
  1
 
  7
CONVERTER_11
 73
     1
 44
1.32052821128451
  0
ENDBLK
  5
69
330
66
100
AcDbEntity
  8
0
100
AcDbBlockEnd
  0
BLOCK
  5
6B
330
6A
100
AcDbEntity
  8
0
100
AcDbBlockBegin
  2
ST_4_DIO_1N_5408_R_L-select__6
 70
     0
 10
-294.0500145401716
 20
-154.6250000000002
 30
0.0
  3
ST_4_DIO_1N_5408_R_L-select__6
  1

  0
LINE
  5
275
330
6A
100
AcDbEntity
  8
0
  6
Continuous
 62
     7
100
AcDbLine
 10
-287.5500145401724
 20
-119.3749999999998
 30
0.0
 11
-288.7500145401723
 21
-119.3749999999998
 31
0.0
  0
LINE
  5
276
330
6A
100
AcDbEntity
  8
0
  6
Continuous
 62
     7
100
AcDbLine
 10
-292.3477802084692
 20
-120.3377194443235
 30
0.0
 11
-292.0898203108245
 21
-119.3749999999998
 31
0.0
  0
LINE
  5
277
330
6A
100
AcDbEntity
  8
0
  6
Continuous
 62
     7
100
AcDbLine
 10
-292.0898203108245
 20
-119.3749999999998
 30
0.0
 11
-288.7500145401723
 21
-119.3749999999998
 31
0.0
  0
LINE
  5
278
330
6A
100
AcDbEntity
  8
0
  6
Continuous
 62
     7
100
AcDbLine
 10
-290.8110179879707
 20
-120.7843700465249
 30
0.0
 11
-291.8450625849284
 21
-120.5072986318324
 31
0.0
  0
LINE
  5
279
330
6A
100
AcDbEntity
  8
0
  6
Continuous
 62
     7
100
AcDbLine
 10
-291.9154630200838
 20
-120.7700366327077
 30
0.0
 11
-291.8515330610559
 21
-120.5314467774895
 31
0.0
  0
LINE
  5
27A
330
6A
100
AcDbEntity
  8
0
  6
Continuous
 62
     7
100
AcDbLine
 10
-292.3477802084692
 20
-120.3377194443235
 30
0.0
 11
-291.9154630200838
 21
-120.7700366327077
 31
0.0
  0
LINE
  5
27B
330
6A
100
AcDbEntity
  8
0
  6
Continuous
 62
     7
100
AcDbLine
 10
-288.7500145401724
 20
-123.6750000000003
 30
0.0
 11
-288.7500145401723
 21
-119.3749999999998
 31
0.0
  0
LINE
  5
27C
330
6A
100
AcDbEntity
  8
0
  6
Continuous
 62
     7
100
AcDbLine
 10
-287.7500145401724
 20
-124.6750000000003
 30
0.0
 11
-287.5500145401725
 21
-124.6750000000003
 31
0.0
  0
LINE
  5
27D
330
6A
100
AcDbEntity
  8
0
  6
Continuous
 62
     7
100
AcDbLine
 10
-292.5500145401716
 20
-153.1250000000003
 30
0.0
 11
-292.5500145401716
 21
-152.1958203932504
 31
0.0
  0
LINE
  5
27E
330
6A
100
AcDbEntity
  8
0
  6
Continuous
 62
     7
100
AcDbLine
 10
-290.4500145401715
 20
-153.1250000000003
 30
0.0
 11
-292.5500145401716
 21
-153.1250000000003
 31
0.0
  0
LINE
  5
27F
330
6A
100
AcDbEntity
  8
0
  6
Continuous
 62
     7
100
AcDbLine
 10
-293.150014540171
 20
-150.6250000000003
 30
0.0
 11
-290.4500145401715
 21
-150.6250000000003
 31
0.0
  0
LINE
  5
280
330
6A
100
AcDbEntity
  8
0
  6
Continuous
 62
     7
100
AcDbLine
 10
-290.4500145401715
 20
-150.6250000000003
 30
0.0
 11
-290.4500145401715
 21
-153.1250000000003
 31
0.0
  0
LINE
  5
281
330
6A
100
AcDbEntity
  8
0
  6
Continuous
 62
     7
100
AcDbLine
 10
-290.4500145401715
 20
-142.0249999999991
 30
0.0
 11
-290.4500145401715
 21
-150.6250000000003
 31
0.0
  0
LINE
  5
282
330
6A
100
AcDbEntity
  8
0
  6
Continuous
 62
     7
100
AcDbLine
 10
-290.4500145401715
 20
-142.0249999999991
 30
0.0
 11
-294.0500145401715
 21
-142.0249999999991
 31
0.0
  0
LINE
  5
283
330
6A
100
AcDbEntity
  8
0
  6
Continuous
 62
     7
100
AcDbLine
 10
-294.0500145401715
 20
-142.0249999999991
 30
0.0
 11
-294.0500145401715
 21
-140.4250000000012
 31
0.0
  0
LINE
  5
284
330
6A
100
AcDbEntity
  8
0
  6
Continuous
 62
     7
100
AcDbLine
 10
-294.0500145401715
 20
-131.4250000000013
 30
0.0
 11
-294.0500145401715
 21
-126.5250793279205
 31
0.0
  0
LINE
  5
285
330
6A
100
AcDbEntity
  8
0
  6
Continuous
 62
     7
100
AcDbLine
 10
-294.0500145401715
 20
-126.5250793279205
 30
0.0
 11
-293.4116926100459
 21
-126.3540414822372
 31
0.0
  0
LINE
  5
286
330
6A
100
AcDbEntity
  8
0
  6
Continuous
 62
     7
100
AcDbLine
 10
-293.4116926100459
 20
-126.3540414822372
 30
0.0
 11
-293.4756225690767
 21
-126.592631337466
 31
0.0
  0
LINE
  5
287
330
6A
100
AcDbEntity
  8
0
  6
Continuous
 62
     7
100
AcDbLine
 10
-293.482093045201
 20
-126.6167794831111
 30
0.0
 11
-292.4480484482452
 21
-126.8938508978027
 31
0.0
  0
LINE
  5
288
330
6A
100
AcDbEntity
  8
0
  6
Continuous
 62
     7
100
AcDbLine
 10
-294.0500145401716
 20
-151.5250000000002
 30
0.0
 11
-294.0500145401716
 21
-154.6250000000002
 31
0.0
  0
LINE
  5
289
330
6A
100
AcDbEntity
  8
0
  6
Continuous
 62
     7
100
AcDbLine
 10
-292.4480484482452
 20
-126.8938508978027
 30
0.0
 11
-290.8110179879707
 21
-120.7843700465249
 31
0.0
  0
LINE
  5
28A
330
6A
100
AcDbEntity
  8
0
  6
Continuous
 62
     7
100
AcDbLine
 10
-238.7883364702979
 20
-126.3540414822373
 30
0.0
 11
-238.7244065112672
 21
-126.592631337466
 31
0.0
  0
LINE
  5
28B
330
6A
100
AcDbEntity
  8
0
  6
Continuous
 62
     7
100
AcDbLine
 10
-238.1500145401724
 20
-126.5250793279205
 30
0.0
 11
-238.7883364702979
 21
-126.3540414822373
 31
0.0
  0
LINE
  5
28C
330
6A
100
AcDbEntity
  8
0
  6
Continuous
 62
     7
100
AcDbLine
 10
-238.1500145401724
 20
-126.5250793279205
 30
0.0
 11
-238.1500145401724
 21
-131.4250000000042
 31
0.0
  0
LINE
  5
28D
330
6A
100
AcDbEntity
  8
0
  6
Continuous
 62
     7
100
AcDbLine
 10
-248.6500145401712
 20
-148.625
 30
0.0
 11
-248.6500145401712
 21
-149.7249999999999
 31
0.0
  0
LINE
  5
28E
330
6A
100
AcDbEntity
  8
0
  6
Continuous
 62
     7
100
AcDbLine
 10
-238.1500145401711
 20
-145.425
 30
0.0
 11
-238.1500145401711
 21
-143.4250000000012
 31
0.0
  0
LINE
  5
28F
330
6A
100
AcDbEntity
  8
0
  6
Continuous
 62
     7
100
AcDbLine
 10
-239.7519806320979
 20
-126.8938508978023
 30
0.0
 11
-238.7179360351464
 21
-126.6167794830978
 31
0.0
  0
LINE
  5
290
330
6A
100
AcDbEntity
  8
0
  6
Continuous
 62
     7
100
AcDbLine
 10
-274.8500145401712
 20
-121.0749999999981
 30
0.0
 11
-274.8500145401712
 21
-125.3750000000014
 31
0.0
  0
LINE
  5
291
330
6A
100
AcDbEntity
  8
0
  6
Continuous
 62
     7
100
AcDbLine
 10
-274.8500145401712
 20
-125.3750000000014
 30
0.0
 11
-266.8500145401714
 21
-125.3750000000023
 31
0.0
  0
LINE
  5
292
330
6A
100
AcDbEntity
  8
0
  6
Continuous
 62
     7
100
AcDbLine
 10
-266.8500145401714
 20
-125.3750000000023
 30
0.0
 11
-266.8500145401715
 21
-121.0750000000025
 31
0.0
  0
LINE
  5
293
330
6A
100
AcDbEntity
  8
0
  6
Continuous
 62
     7
100
AcDbLine
 10
-266.8500145401715
 20
-121.0750000000025
 30
0.0
 11
-266.1315148208656
 21
-119.375000000002
 31
0.0
  0
LINE
  5
294
330
6A
100
AcDbEntity
  8
0
  6
Continuous
 62
     7
100
AcDbLine
 10
-266.1315148208656
 20
-119.375000000002
 30
0.0
 11
-264.4596689151462
 21
-119.3750000000017
 31
0.0
  0
LINE
  5
295
330
6A
100
AcDbEntity
  8
0
  6
Continuous
 62
     7
100
AcDbLine
 10
-280.6331625565436
 20
-142.0249999999994
 30
0.0
 11
-281.1978863761366
 21
-142.0249999999994
 31
0.0
  0
LINE
  5
296
330
6A
100
AcDbEntity
  8
0
  6
Continuous
 62
     7
100
AcDbLine
 10
-280.1501996433991
 20
-142.6544095225509
 30
0.0
 11
-281.7500145401717
 21
-148.625
 31
0.0
  0
LINE
  5
297
330
6A
100
AcDbEntity
  8
0
  6
Continuous
 62
     7
100
AcDbLine
 10
-263.5346160730855
 20
-121.4800000000002
 30
0.0
 11
-264.4596689151462
 21
-119.3750000000017
 31
0.0
  0
LINE
  5
298
330
6A
100
AcDbEntity
  8
0
  6
Continuous
 62
     7
100
AcDbLine
 10
-281.7500145401717
 20
-148.625
 30
0.0
 11
-248.6500145401712
 21
-148.625
 31
0.0
  0
LINE
  5
299
330
6A
100
AcDbEntity
  8
0
  6
Continuous
 62
     7
100
AcDbLine
 10
-264.0625145401701
 20
-121.4800000000002
 30
0.0
 11
-263.5346160730855
 21
-121.4800000000002
 31
0.0
  0
LINE
  5
29A
330
6A
100
AcDbEntity
  8
0
  6
Continuous
 62
     7
100
AcDbLine
 10
-264.0625145401701
 20
-122.5499999999998
 30
0.0
 11
-264.0625145401701
 21
-121.4800000000002
 31
0.0
  0
LINE
  5
29B
330
6A
100
AcDbEntity
  8
0
  6
Continuous
 62
     7
100
AcDbLine
 10
-258.2654130072576
 20
-121.4800000000002
 30
0.0
 11
-257.73751454017
 21
-121.4800000000002
 31
0.0
  0
LINE
  5
29C
330
6A
100
AcDbEntity
  8
0
  6
Continuous
 62
     7
100
AcDbLine
 10
-257.73751454017
 20
-121.4800000000002
 30
0.0
 11
-257.73751454017
 21
-122.5500000000001
 31
0.0
  0
LINE
  5
29D
330
6A
100
AcDbEntity
  8
0
  6
Continuous
 62
     7
100
AcDbLine
 10
-249.9500145401714
 20
-150.0733339501603
 30
0.0
 11
-249.9500145401717
 21
-150.5250000000006
 31
0.0
  0
LINE
  5
29E
330
6A
100
AcDbEntity
  8
0
  6
Continuous
 62
     7
100
AcDbLine
 10
-246.4500145401715
 20
-119.3749999999998
 30
0.0
 11
-257.3403601651939
 21
-119.3749999999998
 31
0.0
  0
LINE
  5
29F
330
6A
100
AcDbEntity
  8
0
  6
Continuous
 62
     7
100
AcDbLine
 10
-257.3403601651939
 20
-119.3749999999998
 30
0.0
 11
-258.2654130072576
 21
-121.4800000000002
 31
0.0
  0
LINE
  5
2A0
330
6A
100
AcDbEntity
  8
0
  6
Continuous
 62
     7
100
AcDbLine
 10
-257.73751454017
 20
-122.5500000000001
 30
0.0
 11
-264.0625145401701
 21
-122.5499999999998
 31
0.0
  0
LINE
  5
2A1
330
6A
100
AcDbEntity
  8
0
  6
Continuous
 62
     7
100
AcDbLine
 10
-285.7500145401725
 20
-119.3749999999998
 30
0.0
 11
-275.5685142594762
 21
-119.3749999999998
 31
0.0
  0
LINE
  5
2A2
330
6A
100
AcDbEntity
  8
0
  6
Continuous
 62
     7
100
AcDbLine
 10
-282.0500145401716
 20
-150.0733339501603
 30
0.0
 11
-283.350014540171
 21
-149.7249999999999
 31
0.0
  0
LINE
  5
2A3
330
6A
100
AcDbEntity
  8
0
  6
Continuous
 62
     7
100
AcDbLine
 10
-283.350014540171
 20
-149.7249999999999
 30
0.0
 11
-283.3500145401709
 21
-148.6249999999806
 31
0.0
  0
LINE
  5
2A4
330
6A
100
AcDbEntity
  8
0
  6
Continuous
 62
     7
100
AcDbLine
 10
-281.680849289281
 20
-142.3955904774478
 30
0.0
 11
-283.3500145401709
 21
-148.6249999999806
 31
0.0
  0
LINE
  5
2A5
330
6A
100
AcDbEntity
  8
0
  6
Continuous
 62
     7
100
AcDbLine
 10
-275.5685142594762
 20
-119.3749999999998
 30
0.0
 11
-274.8500145401712
 21
-121.0749999999981
 31
0.0
  0
LINE
  5
2A6
330
6A
100
AcDbEntity
  8
0
  6
Continuous
 62
     7
100
AcDbLine
 10
-294.0500145401716
 20
-154.6250000000002
 30
0.0
 11
-283.7089581933039
 21
-154.6249999999998
 31
0.0
  0
LINE
  5
2A7
330
6A
100
AcDbEntity
  8
0
  6
Continuous
 62
     7
100
AcDbLine
 10
-248.291070887039
 20
-154.625
 30
0.0
 11
-245.9213972065948
 21
-154.6250000000001
 31
0.0
  0
LINE
  5
2A8
330
6A
100
AcDbEntity
  8
0
  6
Continuous
 62
     7
100
AcDbLine
 10
-286.9500145401725
 20
-119.3749999999998
 30
0.0
 11
-287.5500145401724
 21
-119.3749999999998
 31
0.0
  0
LINE
  5
2A9
330
6A
100
AcDbEntity
  8
0
  6
Continuous
 62
     7
100
AcDbLine
 10
-286.9500145401725
 20
-119.3749999999998
 30
0.0
 11
-285.7500145401725
 21
-119.3749999999998
 31
0.0
  0
LINE
  5
2AA
330
6A
100
AcDbEntity
  8
0
  6
Continuous
 62
     2
100
AcDbLine
 10
-287.5500145401725
 20
-124.6750000000003
 30
0.0
 11
-287.5500145401724
 21
-119.3749999999998
 31
0.0
  0
LINE
  5
2AB
330
6A
100
AcDbEntity
  8
0
  6
Continuous
 62
     2
100
AcDbLine
 10
-286.9500145409442
 20
-124.6750000000003
 30
0.0
 11
-286.9500145401725
 21
-119.3749999999998
 31
0.0
  0
LINE
  5
2AC
330
6A
100
AcDbEntity
  8
0
  6
Continuous
 62
     7
100
AcDbLine
 10
-287.5500145401725
 20
-124.6750000000003
 30
0.0
 11
-286.9500145409442
 21
-124.6750000000003
 31
0.0
  0
LINE
  5
2AD
330
6A
100
AcDbEntity
  8
0
  6
Continuous
 62
     7
100
AcDbLine
 10
-286.7500145401724
 20
-124.6750000000003
 30
0.0
 11
-286.9500145409442
 21
-124.6750000000003
 31
0.0
  0
LINE
  5
2AE
330
6A
100
AcDbEntity
  8
0
  6
Continuous
 62
     7
100
AcDbLine
 10
-282.0500145401716
 20
-150.5250000000017
 30
0.0
 11
-282.0500145401716
 21
-150.0733339501603
 31
0.0
  0
LINE
  5
2AF
330
6A
100
AcDbEntity
  8
0
  6
Continuous
 62
     7
100
AcDbLine
 10
-285.7500145401724
 20
-123.6750000000003
 30
0.0
 11
-285.7500145401725
 21
-119.3749999999998
 31
0.0
  0
LINE
  5
2B0
330
6A
100
AcDbEntity
  8
0
  6
Continuous
 62
     7
100
AcDbLine
 10
-244.6500145401716
 20
-119.3749999999998
 30
0.0
 11
-243.4500145401716
 21
-119.3749999999998
 31
0.0
  0
LINE
  5
2B1
330
6A
100
AcDbEntity
  8
0
  6
Continuous
 62
     7
100
AcDbLine
 10
-245.2500145401715
 20
-119.3749999999998
 30
0.0
 11
-246.4500145401715
 21
-119.3749999999998
 31
0.0
  0
LINE
  5
2B2
330
6A
100
AcDbEntity
  8
0
  6
Continuous
 62
     7
100
AcDbLine
 10
-245.2500145401715
 20
-119.3749999999998
 30
0.0
 11
-244.6500145401716
 21
-119.3749999999998
 31
0.0
  0
LINE
  5
2B3
330
6A
100
AcDbEntity
  8
0
  6
Continuous
 62
     2
100
AcDbLine
 10
-244.6500145401714
 20
-124.6750000000003
 30
0.0
 11
-244.6500145401716
 21
-119.3749999999998
 31
0.0
  0
LINE
  5
2B4
330
6A
100
AcDbEntity
  8
0
  6
Continuous
 62
     2
100
AcDbLine
 10
-245.250014539657
 20
-124.6750000000003
 30
0.0
 11
-245.2500145401715
 21
-119.3749999999998
 31
0.0
  0
LINE
  5
2B5
330
6A
100
AcDbEntity
  8
0
  6
Continuous
 62
     7
100
AcDbLine
 10
-246.4500145401715
 20
-123.6750000000003
 30
0.0
 11
-246.4500145401715
 21
-119.3749999999998
 31
0.0
  0
LINE
  5
2B6
330
6A
100
AcDbEntity
  8
0
  6
Continuous
 62
     7
100
AcDbLine
 10
-240.1102087695195
 20
-119.3749999999998
 30
0.0
 11
-239.8522488718747
 21
-120.3377194443236
 31
0.0
  0
LINE
  5
2B7
330
6A
100
AcDbEntity
  8
0
  6
Continuous
 62
     7
100
AcDbLine
 10
-243.4500145401715
 20
-123.6750000000003
 30
0.0
 11
-243.4500145401716
 21
-119.3749999999998
 31
0.0
  0
LINE
  5
2B8
330
6A
100
AcDbEntity
  8
0
  6
Continuous
 62
     7
100
AcDbLine
 10
-240.1102087695195
 20
-119.3749999999998
 30
0.0
 11
-243.4500145401716
 21
-119.3749999999998
 31
0.0
  0
LINE
  5
2B9
330
6A
100
AcDbEntity
  8
0
  6
Continuous
 62
     7
100
AcDbLine
 10
-239.8522488718747
 20
-120.3377194443236
 30
0.0
 11
-240.2845660602601
 21
-120.7700366327077
 31
0.0
  0
LINE
  5
2BA
330
6A
100
AcDbEntity
  8
0
  6
Continuous
 62
     7
100
AcDbLine
 10
-240.2845660602601
 20
-120.7700366327077
 30
0.0
 11
-240.348496019288
 21
-120.5314467774895
 31
0.0
  0
LINE
  5
2BB
330
6A
100
AcDbEntity
  8
0
  6
Continuous
 62
     7
100
AcDbLine
 10
-245.4500145401715
 20
-124.6750000000003
 30
0.0
 11
-245.250014539657
 21
-124.6750000000003
 31
0.0
  0
LINE
  5
2BC
330
6A
100
AcDbEntity
  8
0
  6
Continuous
 62
     7
100
AcDbLine
 10
-244.6500145401714
 20
-124.6750000000003
 30
0.0
 11
-245.250014539657
 21
-124.6750000000003
 31
0.0
  0
LINE
  5
2BD
330
6A
100
AcDbEntity
  8
0
  6
Continuous
 62
     7
100
AcDbLine
 10
-244.4500145401715
 20
-124.6750000000003
 30
0.0
 11
-244.6500145401714
 21
-124.6750000000003
 31
0.0
  0
LINE
  5
2BE
330
6A
100
AcDbEntity
  8
0
  6
Continuous
 62
     7
100
AcDbLine
 10
-248.6500145401712
 20
-149.7249999999999
 30
0.0
 11
-249.9500145401714
 21
-150.0733339501603
 31
0.0
  0
LINE
  5
2BF
330
6A
100
AcDbEntity
  8
0
  6
Continuous
 62
     7
100
AcDbLine
 10
-241.3890110923724
 20
-120.7843700465246
 30
0.0
 11
-239.7519806320979
 21
-126.8938508978023
 31
0.0
  0
LINE
  5
2C0
330
6A
100
AcDbEntity
  8
0
  6
Continuous
 62
     7
100
AcDbLine
 10
-240.3549664954155
 20
-120.5072986318324
 30
0.0
 11
-241.3890110923724
 21
-120.7843700465246
 31
0.0
  0
LINE
  5
2C1
330
6A
100
AcDbEntity
  8
0
  6
Continuous
 62
     7
100
AcDbLine
 10
-245.9213972065948
 20
-154.6250000000001
 30
0.0
 11
-238.1500145401711
 21
-145.425
 31
0.0
  0
ARC
  5
2C2
330
6A
100
AcDbEntity
  8
0
  6
Continuous
 62
     7
100
AcDbCircle
 10
-291.9926827341078
 20
-120.4806848843283
 30
0.0
 40
0.1499999999999199
100
AcDbArc
 50
340.2198081528347
 51
349.7801918471852
  0
ARC
  5
2C3
330
6A
100
AcDbEntity
  8
0
  6
Continuous
 62
     7
100
AcDbCircle
 10
-287.7500145401724
 20
-123.6750000000003
 30
0.0
 40
1.0
100
AcDbArc
 50
180.0
 51
270.0
  0
ARC
  5
2C4
330
6A
100
AcDbEntity
  8
0
  6
Continuous
 62
     7
100
AcDbCircle
 10
-293.6232427182553
 20
-126.5660175899556
 30
0.0
 40
0.1500000000002332
100
AcDbArc
 50
340.2198081551967
 51
349.7801918447685
  0
ARC
  5
2C5
330
6A
100
AcDbEntity
  8
0
  6
Continuous
 62
     7
100
AcDbCircle
 10
-293.150014540171
 20
-151.5250000000002
 30
0.0
 40
0.899999999999892
100
AcDbArc
 50
90.0
 51
180.0
  0
ARC
  5
2C6
330
6A
100
AcDbEntity
  8
0
  6
Continuous
 62
     7
100
AcDbCircle
 10
-293.150014540171
 20
-151.5250000000002
 30
0.0
 40
0.8999999999997809
100
AcDbArc
 50
311.8103148957396
 51
90.0
  0
ARC
  5
2C7
330
6A
100
AcDbEntity
  8
0
  6
Continuous
 62
     7
100
AcDbCircle
 10
-308.3591025614256
 20
-135.9250000000013
 30
0.0
 40
14.99999999999986
100
AcDbArc
 50
342.5423968762781
 51
17.45760312372222
  0
ARC
  5
2C8
330
6A
100
AcDbEntity
  8
0
  6
Continuous
 62
     7
100
AcDbCircle
 10
-224.4022874553036
 20
-137.4250000000013
 30
0.0
 40
15.00000000000002
100
AcDbArc
 50
156.4218215218103
 51
203.5781784782015
  0
ARC
  5
2C9
330
6A
100
AcDbEntity
  8
0
  6
Continuous
 62
     7
100
AcDbCircle
 10
-238.5767863620903
 20
-126.566017589949
 30
0.0
 40
0.1499999999996986
100
AcDbArc
 50
190.219808157833
 51
199.780191842166
  0
ARC
  5
2CA
330
6A
100
AcDbEntity
  8
0
  6
Continuous
 62
     7
100
AcDbCircle
 10
-280.6331625565436
 20
-142.5249999999994
 30
0.0
 40
0.5000000000000192
100
AcDbArc
 50
344.9999999999724
 51
90.0
  0
ARC
  5
2CB
330
6A
100
AcDbEntity
  8
0
  6
Continuous
 62
     7
100
AcDbCircle
 10
-281.1978863761366
 20
-142.5249999999994
 30
0.0
 40
0.5
100
AcDbArc
 50
90.0
 51
164.9999999999581
  0
ARC
  5
2CC
330
6A
100
AcDbEntity
  8
0
  6
Continuous
 62
     7
100
AcDbCircle
 10
-240.5560418607953
 20
-149.1096282117024
 30
0.0
 40
9.499999999999003
100
AcDbArc
 50
188.5681975617444
 51
215.490323311579
  0
ARC
  5
2CD
330
6A
100
AcDbEntity
  8
0
  6
Continuous
 62
     7
100
AcDbCircle
 10
-291.4439872195477
 20
-149.1096282117024
 30
0.0
 40
9.499999999999014
100
AcDbArc
 50
324.5096766884223
 51
351.4318024382487
  0
ARC
  5
2CE
330
6A
100
AcDbEntity
  8
0
  6
Continuous
 62
     7
100
AcDbCircle
 10
-286.7500145401724
 20
-123.6750000000003
 30
0.0
 40
1.0
100
AcDbArc
 50
270.0
 51
0.0
  0
ARC
  5
2CF
330
6A
100
AcDbEntity
  8
0
  6
Continuous
 62
     7
100
AcDbCircle
 10
-240.207346346236
 20
-120.4806848843283
 30
0.0
 40
0.1499999999999825
100
AcDbArc
 50
190.2198081528052
 51
199.7801918471542
  0
ARC
  5
2D0
330
6A
100
AcDbEntity
  8
0
  6
Continuous
 62
     7
100
AcDbCircle
 10
-244.4500145401715
 20
-123.6750000000003
 30
0.0
 40
1.0
100
AcDbArc
 50
270.0
 51
0.0
  0
ARC
  5
2D1
330
6A
100
AcDbEntity
  8
0
  6
Continuous
 62
     7
100
AcDbCircle
 10
-245.4500145401715
 20
-123.6750000000003
 30
0.0
 40
1.0
100
AcDbArc
 50
180.0
 51
270.0
  0
ENDBLK
  5
6C
330
6A
100
AcDbEntity
  8
0
100
AcDbBlockEnd
  0
BLOCK
  5
6F
330
6D
100
AcDbEntity
  8
0
100
AcDbBlockBegin
  2
Vordans1
 70
     0
 10
-266.1000144332276
 20
-136.9999999999999
 30
0.0
  3
Vordans1
  1

  0
INSERT
  5
6E
330
6D
100
AcDbEntity
  8
0
100
AcDbBlockReference
  2
ST_4_DIO_1N_5408_R_L-select__6
 10
-294.0500145401716
 20
-154.6250000000002
 30
0.0
  0
LINE
  5
2D2
330
6D
100
AcDbEntity
  8
1
  6
DASHED
 62
     2
100
AcDbLine
 10
-266.1500145401712
 20
-147.125
 30
0.0
 11
-266.1500145401712
 21
-149.7249999999999
 31
0.0
  0
MTEXT
  5
2D3
330
6D
100
AcDbEntity
  8
1
 62
     6
100
AcDbMText
 10
-270.9000145401714
 20
-166.8750000000002
 30
0.0
 40
5.0
 41
0.0
 71
     2
 72
     1
  1
 
  7
CONVERTER_11
 73
     1
 44
1.32052821128451
  0
DIMENSION
  5
2DE
330
6D
100
AcDbEntity
  8
1
100
AcDbDimension
  2
*D18
 10
-266.1500145401712
 20
-168.211609669414
 30
0.0
 11
-253.268097931575
 21
-164.961609669414
 31
0.0
 70
    32
  1
<>
 71
     5
 42
-1.0
 53
0.00013888888889
  3
ME10_DIM_11
100
AcDbAlignedDimension
 13
-238.1500145401711
 23
-145.425
 33
0.0
 14
-266.1500145401712
 24
-149.7249999999999
 34
0.0
100
AcDbRotatedDimension
  0
DIMENSION
  5
2E9
330
6D
100
AcDbEntity
  8
1
100
AcDbDimension
  2
*D19
 10
-266.1500145401712
 20
-159.7249999999998
 30
0.0
 11
-256.759768033033
 21
-156.2999999999998
 31
0.0
 70
    32
  1
<>
 71
     5
 42
-1.0
 53
0.00013888888889
  3
ME10_DIM_12
100
AcDbAlignedDimension
 13
-248.6500145401712
 23
-149.7249999999999
 33
0.0
 14
-266.1500145401712
 24
-149.7249999999999
 34
0.0
100
AcDbRotatedDimension
  0
DIMENSION
  5
2F4
330
6D
100
AcDbEntity
  8
1
100
AcDbDimension
  2
*D20
 10
-308.901002028858
 20
-119.3749999999998
 30
0.0
 11
-312.326002028858
 21
-135.772317253449
 31
0.0
 70
    32
  1
<>
 71
     5
 42
-1.0
 53
90.0
  3
ME10_DIM_13
100
AcDbAlignedDimension
 13
-294.0500145401716
 23
-154.6250000000002
 33
0.0
 14
-292.0898203108245
 24
-119.3749999999998
 34
0.0
 50
90.0
100
AcDbRotatedDimension
  0
DIMENSION
  5
2FF
330
6D
100
AcDbEntity
  8
1
100
AcDbDimension
  2
*D21
 10
-294.0500145401716
 20
-177.8750000000002
 30
0.0
 11
-267.1000145401714
 21
-174.4500000000002
 31
0.0
 70
    32
  1
<>
 71
     5
 42
-1.0
 53
0.00013888888889
  3
ME10_DIM_14
100
AcDbAlignedDimension
 13
-238.1500145401711
 23
-145.425
 33
0.0
 14
-294.0500145401716
 24
-154.6250000000002
 34
0.0
 50
0.0000000000022
100
AcDbRotatedDimension
  0
DIMENSION
  5
30A
330
6D
100
AcDbEntity
  8
1
100
AcDbDimension
  2
*D22
 10
-298.3000145401716
 20
-154.6250000000002
 30
0.0
 11
-301.7250145401716
 21
-137.0
 31
0.0
 70
    32
  1
<>
 71
     5
 42
-1.0
 53
90.00000000000001
  3
ME10_DIM_15
100
AcDbAlignedDimension
 13
-292.0898203108245
 23
-119.3749999999998
 33
0.0
 14
-294.0500145401716
 24
-154.6250000000002
 34
0.0
 50
90.00000000000001
100
AcDbRotatedDimension
  0
ENDBLK
  5
70
330
6D
100
AcDbEntity
  8
0
100
AcDbBlockEnd
  0
BLOCK
  5
72
330
71
100
AcDbEntity
  8
0
100
AcDbBlockBegin
  2
_rahmen
 70
     0
 10
-80.35483681705672
 20
-288.4577147676535
 30
0.0
  3
_rahmen
  1

  0
LINE
  5
30B
330
71
100
AcDbEntity
  8
1
  6
Continuous
 62
     6
100
AcDbLine
 10
-209.8996413438067
 20
-257.9577147676534
 30
0.0
 11
-80.35483681705503
 21
-257.9577147676534
 31
0.0
  0
LINE
  5
30C
330
71
100
AcDbEntity
  8
1
  6
Continuous
 62
     7
100
AcDbLine
 10
-191.6996413438067
 20
-279.2077147676534
 30
0.0
 11
-173.4996413438068
 21
-279.2077147676534
 31
0.0
  0
LINE
  5
30D
330
71
100
AcDbEntity
  8
1
  6
Continuous
 62
     6
100
AcDbLine
 10
-191.6996413438067
 20
-283.4577147676534
 30
0.0
 11
-209.8996413438067
 21
-283.4577147676535
 31
0.0
  0
LINE
  5
30E
330
71
100
AcDbEntity
  8
1
  6
Continuous
 62
     7
100
AcDbLine
 10
-191.6996413438067
 20
-279.2077147676534
 30
0.0
 11
-191.6996413438067
 21
-283.4577147676534
 31
0.0
  0
LINE
  5
30F
330
71
100
AcDbEntity
  8
1
  6
Continuous
 62
     7
100
AcDbLine
 10
-173.4996413438068
 20
-279.2077147676534
 30
0.0
 11
-173.4996413438068
 21
-283.4577147676535
 31
0.0
  0
LINE
  5
310
330
71
100
AcDbEntity
  8
1
  6
Continuous
 62
     7
100
AcDbLine
 10
-209.8996413438067
 20
-279.2077147676535
 30
0.0
 11
-209.8996413438067
 21
-283.4577147676535
 31
0.0
  0
LINE
  5
311
330
71
100
AcDbEntity
  8
1
  6
Continuous
 62
     7
100
AcDbLine
 10
-209.8996413438067
 20
-279.2077147676535
 30
0.0
 11
-191.6996413438067
 21
-279.2077147676534
 31
0.0
  0
LINE
  5
312
330
71
100
AcDbEntity
  8
1
  6
Continuous
 62
     2
100
AcDbLine
 10
-200.6629864572441
 20
-259.8327147676534
 30
0.0
 11
-200.6629864572441
 21
-264.8327147676534
 31
0.0
  0
LINE
  5
313
330
71
100
AcDbEntity
  8
1
  6
Continuous
 62
     2
100
AcDbLine
 10
-200.6629864572441
 20
-264.8327147676534
 30
0.0
 11
-205.6629864572441
 21
-263.5827147676534
 31
0.0
  0
LINE
  5
314
330
71
100
AcDbEntity
  8
1
  6
Continuous
 62
     2
100
AcDbLine
 10
-205.6629864572441
 20
-263.5827147676534
 30
0.0
 11
-205.6629864572441
 21
-261.0827147676534
 31
0.0
  0
LINE
  5
315
330
71
100
AcDbEntity
  8
1
  6
Continuous
 62
     2
100
AcDbLine
 10
-205.6629864572441
 20
-261.0827147676534
 30
0.0
 11
-200.6629864572441
 21
-259.8327147676534
 31
0.0
  0
LINE
  5
316
330
71
100
AcDbEntity
  8
1
  6
Continuous
 62
     6
100
AcDbLine
 10
-332.354836817055
 20
-283.4577147676534
 30
0.0
 11
-367.3548368170548
 21
-283.4577147676534
 31
0.0
  0
LINE
  5
317
330
71
100
AcDbEntity
  8
1
  6
Continuous
 62
     6
100
AcDbLine
 10
-80.35483681705503
 20
-266.4577147676534
 30
0.0
 11
-80.35483681705543
 21
-274.9577147676534
 31
0.0
  0
LINE
  5
318
330
71
100
AcDbEntity
  8
1
  6
Continuous
 62
     6
100
AcDbLine
 10
-173.4996413438068
 20
-283.4577147676535
 30
0.0
 11
-173.8548368170567
 21
-283.4577147676534
 31
0.0
  0
LINE
  5
319
330
71
100
AcDbEntity
  8
1
  6
Continuous
 62
     6
100
AcDbLine
 10
-326.154836817057
 20
-283.4577147676535
 30
0.0
 11
-332.354836817055
 21
-283.4577147676534
 31
0.0
  0
LINE
  5
31A
330
71
100
AcDbEntity
  8
1
  6
Continuous
 62
     7
100
AcDbLine
 10
-173.4996413438068
 20
-266.4577147676534
 30
0.0
 11
-173.4996413438068
 21
-279.2077147676534
 31
0.0
  0
LINE
  5
31B
330
71
100
AcDbEntity
  8
1
  6
Continuous
 62
     7
100
AcDbLine
 10
-209.8996413438067
 20
-266.4577147676534
 30
0.0
 11
-209.8996413438067
 21
-279.2077147676535
 31
0.0
  0
LINE
  5
31C
330
71
100
AcDbEntity
  8
1
  6
Continuous
 62
     6
100
AcDbLine
 10
-223.8548368170567
 20
-283.4577147676534
 30
0.0
 11
-273.8548368170569
 21
-283.4577147676534
 31
0.0
  0
LINE
  5
31D
330
71
100
AcDbEntity
  8
1
  6
Continuous
 62
     6
100
AcDbLine
 10
-326.154836817057
 20
-283.4577147676535
 30
0.0
 11
-323.8548368170567
 21
-283.4577147676534
 31
0.0
  0
LINE
  5
31E
330
71
100
AcDbEntity
  8
1
  6
Continuous
 62
     6
100
AcDbLine
 10
-173.4996413438068
 20
-283.4577147676535
 30
0.0
 11
-123.8548368170567
 21
-283.4577147676534
 31
0.0
  0
LINE
  5
31F
330
71
100
AcDbEntity
  8
1
  6
Continuous
 62
     6
100
AcDbLine
 10
-80.35483681705672
 20
-283.4577147676534
 30
0.0
 11
-80.35483681705543
 21
-274.9577147676534
 31
0.0
  0
LINE
  5
320
330
71
100
AcDbEntity
  8
1
  6
Continuous
 62
     2
100
AcDbLine
 10
-372.3548368170558
 20
-283.4577147676534
 30
0.0
 11
-372.3548368170558
 21
-288.4577147676535
 31
0.0
  0
LINE
  5
321
330
71
100
AcDbEntity
  8
1
  6
Continuous
 62
     2
100
AcDbLine
 10
-367.3548368170548
 20
-283.4577147676534
 30
0.0
 11
-372.3548368170558
 21
-283.4577147676534
 31
0.0
  0
LINE
  5
322
330
71
100
AcDbEntity
  8
1
  6
Continuous
 62
     2
100
AcDbLine
 10
-367.3548368170548
 20
-288.4577147676535
 30
0.0
 11
-323.8548368170567
 21
-288.4577147676535
 31
0.0
  0
LINE
  5
323
330
71
100
AcDbEntity
  8
1
  6
Continuous
 62
     2
100
AcDbLine
 10
-367.3548368170548
 20
-283.4577147676534
 30
0.0
 11
-367.3548368170548
 21
-288.4577147676535
 31
0.0
  0
LINE
  5
324
330
71
100
AcDbEntity
  8
1
  6
Continuous
 62
     2
100
AcDbLine
 10
-123.8548368170567
 20
-288.4577147676535
 30
0.0
 11
-173.8548368170567
 21
-288.4577147676535
 31
0.0
  0
LINE
  5
325
330
71
100
AcDbEntity
  8
1
  6
Continuous
 62
     2
100
AcDbLine
 10
-123.8548368170567
 20
-288.4577147676535
 30
0.0
 11
-123.8548368170567
 21
-283.4577147676534
 31
0.0
  0
LINE
  5
326
330
71
100
AcDbEntity
  8
1
  6
Continuous
 62
     2
100
AcDbLine
 10
-173.8548368170567
 20
-288.4577147676535
 30
0.0
 11
-173.8548368170567
 21
-283.4577147676534
 31
0.0
  0
LINE
  5
327
330
71
100
AcDbEntity
  8
1
  6
Continuous
 62
     2
100
AcDbLine
 10
-223.8548368170567
 20
-288.4577147676535
 30
0.0
 11
-173.8548368170567
 21
-288.4577147676535
 31
0.0
  0
LINE
  5
328
330
71
100
AcDbEntity
  8
1
  6
Continuous
 62
     2
100
AcDbLine
 10
-223.8548368170567
 20
-288.4577147676535
 30
0.0
 11
-223.8548368170567
 21
-283.4577147676534
 31
0.0
  0
LINE
  5
329
330
71
100
AcDbEntity
  8
1
  6
Continuous
 62
     2
100
AcDbLine
 10
-273.8548368170569
 20
-288.4577147676535
 30
0.0
 11
-223.8548368170567
 21
-288.4577147676535
 31
0.0
  0
LINE
  5
32A
330
71
100
AcDbEntity
  8
1
  6
Continuous
 62
     2
100
AcDbLine
 10
-273.8548368170569
 20
-288.4577147676535
 30
0.0
 11
-273.8548368170569
 21
-283.4577147676534
 31
0.0
  0
LINE
  5
32B
330
71
100
AcDbEntity
  8
1
  6
Continuous
 62
     2
100
AcDbLine
 10
-323.8548368170567
 20
-288.4577147676535
 30
0.0
 11
-273.8548368170569
 21
-288.4577147676535
 31
0.0
  0
LINE
  5
32C
330
71
100
AcDbEntity
  8
1
  6
Continuous
 62
     2
100
AcDbLine
 10
-323.8548368170567
 20
-288.4577147676535
 30
0.0
 11
-323.8548368170567
 21
-283.4577147676534
 31
0.0
  0
LINE
  5
32D
330
71
100
AcDbEntity
  8
1
  6
Continuous
 62
     6
100
AcDbLine
 10
-367.354836817055
 20
-233.4577147676533
 30
0.0
 11
-367.3548368170548
 21
-283.4577147676534
 31
0.0
  0
LINE
  5
32E
330
71
100
AcDbEntity
  8
1
  6
Continuous
 62
     2
100
AcDbLine
 10
-372.3548368170558
 20
-233.4577147676533
 30
0.0
 11
-372.3548368170558
 21
-283.4577147676534
 31
0.0
  0
LINE
  5
32F
330
71
100
AcDbEntity
  8
1
  6
Continuous
 62
     2
100
AcDbLine
 10
-372.3548368170558
 20
-233.4577147676533
 30
0.0
 11
-367.354836817055
 21
-233.4577147676533
 31
0.0
  0
LINE
  5
330
330
71
100
AcDbEntity
  8
1
  6
Continuous
 62
     6
100
AcDbLine
 10
-367.3548368170552
 20
-183.4577147676535
 30
0.0
 11
-367.354836817055
 21
-233.4577147676533
 31
0.0
  0
LINE
  5
331
330
71
100
AcDbEntity
  8
1
  6
Continuous
 62
     2
100
AcDbLine
 10
-372.3548368170558
 20
-183.4577147676535
 30
0.0
 11
-372.3548368170558
 21
-233.4577147676533
 31
0.0
  0
LINE
  5
332
330
71
100
AcDbEntity
  8
1
  6
Continuous
 62
     2
100
AcDbLine
 10
-372.3548368170558
 20
-183.4577147676535
 30
0.0
 11
-367.3548368170552
 21
-183.4577147676535
 31
0.0
  0
LINE
  5
333
330
71
100
AcDbEntity
  8
1
  6
Continuous
 62
     6
100
AcDbLine
 10
-367.3548368170557
 20
-133.4577147676534
 30
0.0
 11
-367.3548368170552
 21
-183.4577147676535
 31
0.0
  0
LINE
  5
334
330
71
100
AcDbEntity
  8
1
  6
Continuous
 62
     2
100
AcDbLine
 10
-372.3548368170558
 20
-133.4577147676534
 30
0.0
 11
-372.3548368170558
 21
-183.4577147676535
 31
0.0
  0
LINE
  5
335
330
71
100
AcDbEntity
  8
1
  6
Continuous
 62
     2
100
AcDbLine
 10
-372.3548368170558
 20
-133.4577147676534
 30
0.0
 11
-367.3548368170557
 21
-133.4577147676534
 31
0.0
  0
LINE
  5
336
330
71
100
AcDbEntity
  8
1
  6
Continuous
 62
     6
100
AcDbLine
 10
-367.3548368170558
 20
-98.45771476765339
 30
0.0
 11
-367.3548368170557
 21
-133.4577147676534
 31
0.0
  0
LINE
  5
337
330
71
100
AcDbEntity
  8
1
  6
Continuous
 62
     2
100
AcDbLine
 10
-372.3548368170558
 20
-78.45771476765339
 30
0.0
 11
-372.3548368170558
 21
-133.4577147676534
 31
0.0
  0
LINE
  5
338
330
71
100
AcDbEntity
  8
1
  6
Continuous
 62
     2
100
AcDbLine
 10
-372.3548368170558
 20
-288.4577147676535
 30
0.0
 11
-367.3548368170548
 21
-288.4577147676535
 31
0.0
  0
LINE
  5
339
330
71
100
AcDbEntity
  8
1
  6
Continuous
 62
     2
100
AcDbLine
 10
-223.8548368170567
 20
-78.45771476765339
 30
0.0
 11
-223.8548368170567
 21
-87.6664066123547
 31
0.0
  0
LINE
  5
33A
330
71
100
AcDbEntity
  8
1
  6
Continuous
 62
     2
100
AcDbLine
 10
-223.8548368170567
 20
-78.45771476765339
 30
0.0
 11
-372.3548368170558
 21
-78.45771476765339
 31
0.0
  0
LINE
  5
33B
330
71
100
AcDbEntity
  8
1
  6
Continuous
 62
     2
100
AcDbLine
 10
-75.35483681705773
 20
-283.4577147676534
 30
0.0
 11
-75.35483681705773
 21
-233.4577147676533
 31
0.0
  0
LINE
  5
33C
330
71
100
AcDbEntity
  8
1
  6
Continuous
 62
     2
100
AcDbLine
 10
-75.35483681705773
 20
-133.4577147676534
 30
0.0
 11
-75.35483681705773
 21
-78.45771476765339
 31
0.0
  0
LINE
  5
33D
330
71
100
AcDbEntity
  8
1
  6
Continuous
 62
     6
100
AcDbLine
 10
-80.35483681705753
 20
-133.4577147676534
 30
0.0
 11
-80.35483681705773
 21
-98.45771476765339
 31
0.0
  0
LINE
  5
33E
330
71
100
AcDbEntity
  8
1
  6
Continuous
 62
     2
100
AcDbLine
 10
-80.35483681705753
 20
-133.4577147676534
 30
0.0
 11
-75.35483681705773
 21
-133.4577147676534
 31
0.0
  0
LINE
  5
33F
330
71
100
AcDbEntity
  8
1
  6
Continuous
 62
     2
100
AcDbLine
 10
-75.35483681705773
 20
-183.4577147676535
 30
0.0
 11
-75.35483681705773
 21
-133.4577147676534
 31
0.0
  0
LINE
  5
340
330
71
100
AcDbEntity
  8
1
  6
Continuous
 62
     6
100
AcDbLine
 10
-80.35483681705632
 20
-183.4577147676535
 30
0.0
 11
-80.35483681705753
 21
-133.4577147676534
 31
0.0
  0
LINE
  5
341
330
71
100
AcDbEntity
  8
1
  6
Continuous
 62
     2
100
AcDbLine
 10
-80.35483681705632
 20
-183.4577147676535
 30
0.0
 11
-75.35483681705773
 21
-183.4577147676535
 31
0.0
  0
LINE
  5
342
330
71
100
AcDbEntity
  8
1
  6
Continuous
 62
     2
100
AcDbLine
 10
-75.35483681705773
 20
-233.4577147676533
 30
0.0
 11
-75.35483681705773
 21
-183.4577147676535
 31
0.0
  0
LINE
  5
343
330
71
100
AcDbEntity
  8
1
  6
Continuous
 62
     6
100
AcDbLine
 10
-80.35483681705583
 20
-233.4577147676533
 30
0.0
 11
-80.35483681705632
 21
-183.4577147676535
 31
0.0
  0
LINE
  5
344
330
71
100
AcDbEntity
  8
1
  6
Continuous
 62
     2
100
AcDbLine
 10
-80.35483681705583
 20
-233.4577147676533
 30
0.0
 11
-75.35483681705773
 21
-233.4577147676533
 31
0.0
  0
LINE
  5
345
330
71
100
AcDbEntity
  8
1
  6
Continuous
 62
     6
100
AcDbLine
 10
-80.35483681705773
 20
-98.45771476765339
 30
0.0
 11
-367.3548368170558
 21
-98.45771476765339
 31
0.0
  0
LINE
  5
346
330
71
100
AcDbEntity
  8
1
  6
Continuous
 62
     2
100
AcDbLine
 10
-75.35483681705773
 20
-78.45771476765339
 30
0.0
 11
-223.8548368170567
 21
-78.45771476765339
 31
0.0
  0
LINE
  5
347
330
71
100
AcDbEntity
  8
1
  6
Continuous
 62
     6
100
AcDbLine
 10
-80.35483681705503
 20
-266.4577147676534
 30
0.0
 11
-80.35483681705583
 21
-233.4577147676533
 31
0.0
  0
LINE
  5
348
330
71
100
AcDbEntity
  8
1
  6
Continuous
 62
     2
100
AcDbLine
 10
-80.35483681705672
 20
-288.4577147676535
 30
0.0
 11
-123.8548368170567
 21
-288.4577147676535
 31
0.0
  0
LINE
  5
349
330
71
100
AcDbEntity
  8
1
  6
Continuous
 62
     2
100
AcDbLine
 10
-75.35483681705773
 20
-288.4577147676535
 30
0.0
 11
-80.35483681705672
 21
-288.4577147676535
 31
0.0
  0
LINE
  5
34A
330
71
100
AcDbEntity
  8
1
  6
Continuous
 62
     2
100
AcDbLine
 10
-75.35483681705773
 20
-288.4577147676535
 30
0.0
 11
-75.35483681705773
 21
-283.4577147676534
 31
0.0
  0
LINE
  5
34B
330
71
100
AcDbEntity
  8
1
  6
Continuous
 62
     6
100
AcDbLine
 10
-209.8996413438067
 20
-266.4577147676534
 30
0.0
 11
-173.4996413438068
 21
-266.4577147676534
 31
0.0
  0
LINE
  5
34C
330
71
100
AcDbEntity
  8
1
  6
Continuous
 62
     2
100
AcDbLine
 10
-80.35483681705672
 20
-283.4577147676534
 30
0.0
 11
-80.35483681705672
 21
-288.4577147676535
 31
0.0
  0
LINE
  5
34D
330
71
100
AcDbEntity
  8
1
  6
Continuous
 62
     2
100
AcDbLine
 10
-80.35483681705672
 20
-283.4577147676534
 30
0.0
 11
-75.35483681705773
 21
-283.4577147676534
 31
0.0
  0
LINE
  5
34E
330
71
100
AcDbEntity
  8
1
  6
Continuous
 62
     6
100
AcDbLine
 10
-173.8548368170567
 20
-283.4577147676534
 30
0.0
 11
-191.6996413438067
 21
-283.4577147676534
 31
0.0
  0
LINE
  5
34F
330
71
100
AcDbEntity
  8
1
  6
Continuous
 62
     6
100
AcDbLine
 10
-123.8548368170567
 20
-283.4577147676534
 30
0.0
 11
-80.35483681705672
 21
-283.4577147676534
 31
0.0
  0
LINE
  5
350
330
71
100
AcDbEntity
  8
1
  6
Continuous
 62
     6
100
AcDbLine
 10
-273.8548368170569
 20
-283.4577147676534
 30
0.0
 11
-278.8996413438067
 21
-283.4577147676534
 31
0.0
  0
LINE
  5
351
330
71
100
AcDbEntity
  8
1
  6
Continuous
 62
     6
100
AcDbLine
 10
-223.8548368170567
 20
-283.4577147676534
 30
0.0
 11
-209.8996413438067
 21
-283.4577147676535
 31
0.0
  0
LINE
  5
352
102
{ACAD_REACTORS
330
43C
330
43D
102
}
330
71
100
AcDbEntity
  8
0
  6
Continuous
 62
     2
100
AcDbLine
 10
-202.3850154016599
 20
-271.3852000114413
 30
0.0
 11
-202.3850154016599
 21
-270.7796647229345
 31
0.0
  0
LINE
  5
353
102
{ACAD_REACTORS
330
43C
330
43D
102
}
330
71
100
AcDbEntity
  8
0
  6
Continuous
 62
     2
100
AcDbLine
 10
-202.3850154016599
 20
-274.1853346180726
 30
0.0
 11
-202.3850154016599
 21
-273.6034832113775
 31
0.0
  0
LINE
  5
354
102
{ACAD_REACTORS
330
43E
330
43F
102
}
330
71
100
AcDbEntity
  8
0
  6
Continuous
 62
     2
100
AcDbLine
 10
-179.7555289661807
 20
-273.8956705499496
 30
0.0
 11
-179.7555289661807
 21
-276.1642147676371
 31
0.0
  0
LINE
  5
355
102
{ACAD_REACTORS
330
43E
330
43F
102
}
330
71
100
AcDbEntity
  8
0
  6
Continuous
 62
     2
100
AcDbLine
 10
-181.1365827451683
 20
-273.1104052438265
 30
0.0
 11
-177.7516372265396
 21
-273.110405243826
 31
0.0
  0
LINE
  5
356
102
{ACAD_REACTORS
330
43E
330
43F
102
}
330
71
100
AcDbEntity
  8
0
  6
Continuous
 62
     2
100
AcDbLine
 10
-177.7516372265396
 20
-273.8956705499496
 30
0.0
 11
-177.7516372265396
 21
-273.110405243826
 31
0.0
  0
LINE
  5
357
102
{ACAD_REACTORS
330
43E
330
43F
102
}
330
71
100
AcDbEntity
  8
0
  6
Continuous
 62
     2
100
AcDbLine
 10
-178.562736264013
 20
-273.8956705499496
 30
0.0
 11
-177.7516372265396
 21
-273.8956705499496
 31
0.0
  0
LINE
  5
358
102
{ACAD_REACTORS
330
43E
330
43F
102
}
330
71
100
AcDbEntity
  8
0
  6
Continuous
 62
     2
100
AcDbLine
 10
-178.562736264013
 20
-276.1642147676371
 30
0.0
 11
-178.562736264013
 21
-273.8956705499496
 31
0.0
  0
LINE
  5
359
102
{ACAD_REACTORS
330
43E
330
43F
102
}
330
71
100
AcDbEntity
  8
0
  6
Continuous
 62
     2
100
AcDbLine
 10
-179.7555289661807
 20
-276.1642147676371
 30
0.0
 11
-178.562736264013
 21
-276.1642147676371
 31
0.0
  0
LINE
  5
35A
102
{ACAD_REACTORS
330
434
330
435
102
}
330
71
100
AcDbEntity
  8
0
  6
Continuous
 62
     2
100
AcDbLine
 10
-180.4521199042452
 20
-269.7512147676516
 30
0.0
 11
-181.8548441219945
 21
-269.7512147676516
 31
0.0
  0
LINE
  5
35B
102
{ACAD_REACTORS
330
434
330
435
102
}
330
71
100
AcDbEntity
  8
0
  6
Continuous
 62
     2
100
AcDbLine
 10
-180.4521199042452
 20
-269.7512147676516
 30
0.0
 11
-179.8509523823534
 21
-270.4310380892071
 31
0.0
  0
LINE
  5
35C
102
{ACAD_REACTORS
330
434
330
435
102
}
330
71
100
AcDbEntity
  8
0
  6
Continuous
 62
     2
100
AcDbLine
 10
-179.8509523823534
 20
-270.4310380892071
 30
0.0
 11
-179.2497848604606
 21
-269.7512147676516
 31
0.0
  0
LINE
  5
35D
102
{ACAD_REACTORS
330
434
330
435
102
}
330
71
100
AcDbEntity
  8
0
  6
Continuous
 62
     2
100
AcDbLine
 10
-179.1495902734799
 20
-271.2241652976878
 30
0.0
 11
-177.8470606427134
 21
-269.7512147676516
 31
0.0
  0
LINE
  5
35E
102
{ACAD_REACTORS
330
434
330
435
102
}
330
71
100
AcDbEntity
  8
0
  6
Continuous
 62
     2
100
AcDbLine
 10
-179.1495902734799
 20
-271.2241652976878
 30
0.0
 11
-177.7516372265396
 21
-272.8050242914628
 31
0.0
  0
LINE
  5
35F
102
{ACAD_REACTORS
330
434
330
435
102
}
330
71
100
AcDbEntity
  8
0
  6
Continuous
 62
     2
100
AcDbLine
 10
-179.1543614442879
 20
-272.8050242914628
 30
0.0
 11
-177.7516372265396
 21
-272.8050242914628
 31
0.0
  0
LINE
  5
360
102
{ACAD_REACTORS
330
434
330
435
102
}
330
71
100
AcDbEntity
  8
0
  6
Continuous
 62
     2
100
AcDbLine
 10
-179.8509523823534
 20
-272.017292506169
 30
0.0
 11
-179.1543614442879
 21
-272.8050242914628
 31
0.0
  0
LINE
  5
361
102
{ACAD_REACTORS
330
432
330
433
102
}
330
71
100
AcDbEntity
  8
0
  6
Continuous
 62
     2
100
AcDbLine
 10
-183.3100512186371
 20
-269.7512147676516
 30
0.0
 11
-182.0695468083842
 21
-269.7512147676516
 31
0.0
  0
LINE
  5
362
102
{ACAD_REACTORS
330
432
330
433
102
}
330
71
100
AcDbEntity
  8
0
  6
Continuous
 62
     2
100
AcDbLine
 10
-182.0695468083842
 20
-269.7512147676516
 30
0.0
 11
-182.0695468083842
 21
-272.8050242914628
 31
0.0
  0
LINE
  5
363
102
{ACAD_REACTORS
330
432
330
433
102
}
330
71
100
AcDbEntity
  8
0
  6
Continuous
 62
     2
100
AcDbLine
 10
-183.3100512186371
 20
-272.8050242914628
 30
0.0
 11
-183.3100512186371
 21
-269.7512147676516
 31
0.0
  0
LINE
  5
364
102
{ACAD_REACTORS
330
430
330
431
102
}
330
71
100
AcDbEntity
  8
0
  6
Continuous
 62
     2
100
AcDbLine
 10
-184.7783613011747
 20
-274.9426909581126
 30
0.0
 11
-184.4781960639823
 21
-274.1748759921259
 31
0.0
  0
LINE
  5
365
102
{ACAD_REACTORS
330
430
330
431
102
}
330
71
100
AcDbEntity
  8
0
  6
Continuous
 62
     2
100
AcDbLine
 10
-185.2558969057955
 20
-276.1642147676371
 30
0.0
 11
-185.0444168523197
 21
-275.6232542234192
 31
0.0
  0
LINE
  5
366
102
{ACAD_REACTORS
330
430
330
431
102
}
330
71
100
AcDbEntity
  8
0
  6
Continuous
 62
     2
100
AcDbLine
 10
-185.0984482691092
 20
-273.110405243826
 30
0.0
 11
-186.4964013160485
 21
-276.1642147676371
 31
0.0
  0
LINE
  5
367
102
{ACAD_REACTORS
330
430
330
431
102
}
330
71
100
AcDbEntity
  8
0
  6
Continuous
 62
     2
100
AcDbLine
 10
-182.4599908119162
 20
-276.1642147676371
 30
0.0
 11
-183.7004952221701
 21
-276.1642147676371
 31
0.0
  0
LINE
  5
368
102
{ACAD_REACTORS
330
430
330
431
102
}
330
71
100
AcDbEntity
  8
0
  6
Continuous
 62
     2
100
AcDbLine
 10
-185.0444168523197
 20
-275.6232542234192
 30
0.0
 11
-183.9119752756459
 21
-275.6232542234192
 31
0.0
  0
LINE
  5
369
102
{ACAD_REACTORS
330
42E
330
42F
102
}
330
71
100
AcDbEntity
  8
0
  6
Continuous
 62
     2
100
AcDbLine
 10
-188.6539134552307
 20
-273.8956705499496
 30
0.0
 11
-187.8428144177561
 21
-273.8956705499496
 31
0.0
  0
LINE
  5
36A
102
{ACAD_REACTORS
330
42E
330
42F
102
}
330
71
100
AcDbEntity
  8
0
  6
Continuous
 62
     2
100
AcDbLine
 10
-185.8389226781171
 20
-273.110405243826
 30
0.0
 11
-188.6539134552307
 21
-273.110405243826
 31
0.0
  0
LINE
  5
36B
102
{ACAD_REACTORS
330
42E
330
42F
102
}
330
71
100
AcDbEntity
  8
0
  6
Continuous
 62
     2
100
AcDbLine
 10
-185.8389226781171
 20
-273.8956705499496
 30
0.0
 11
-185.8389226781171
 21
-273.110405243826
 31
0.0
  0
LINE
  5
36C
102
{ACAD_REACTORS
330
42E
330
42F
102
}
330
71
100
AcDbEntity
  8
0
  6
Continuous
 62
     2
100
AcDbLine
 10
-186.6500217155896
 20
-273.8956705499496
 30
0.0
 11
-185.8389226781171
 21
-273.8956705499496
 31
0.0
  0
LINE
  5
36D
102
{ACAD_REACTORS
330
42E
330
42F
102
}
330
71
100
AcDbEntity
  8
0
  6
Continuous
 62
     2
100
AcDbLine
 10
-186.6500217155896
 20
-276.1642147676371
 30
0.0
 11
-186.6500217155896
 21
-273.8956705499496
 31
0.0
  0
LINE
  5
36E
102
{ACAD_REACTORS
330
42C
330
42D
102
}
330
71
100
AcDbEntity
  8
0
  6
Continuous
 62
     2
100
AcDbLine
 10
-185.9819068714916
 20
-272.8050242914628
 30
0.0
 11
-185.9819068714916
 21
-271.4962487812581
 31
0.0
  0
LINE
  5
36F
102
{ACAD_REACTORS
330
42C
330
42D
102
}
330
71
100
AcDbEntity
  8
0
  6
Continuous
 62
     2
100
AcDbLine
 10
-187.1746995736581
 20
-269.7512147676516
 30
0.0
 11
-187.1746995736581
 21
-272.8050242914628
 31
0.0
  0
LINE
  5
370
102
{ACAD_REACTORS
330
42C
330
42D
102
}
330
71
100
AcDbEntity
  8
0
  6
Continuous
 62
     2
100
AcDbLine
 10
-185.9819068714916
 20
-269.7512147676516
 30
0.0
 11
-187.1746995736581
 21
-269.7512147676516
 31
0.0
  0
LINE
  5
371
102
{ACAD_REACTORS
330
42C
330
42D
102
}
330
71
100
AcDbEntity
  8
0
  6
Continuous
 62
     2
100
AcDbLine
 10
-184.7414024612376
 20
-269.7512147676516
 30
0.0
 11
-184.7414024612376
 21
-271.0599902778567
 31
0.0
  0
LINE
  5
372
102
{ACAD_REACTORS
330
42A
330
42B
102
}
330
71
100
AcDbEntity
  8
0
  6
Continuous
 62
     2
100
AcDbLine
 10
-192.4231383940778
 20
-273.110405243826
 30
0.0
 11
-192.4231383940778
 21
-276.1642147676371
 31
0.0
  0
LINE
  5
373
102
{ACAD_REACTORS
330
42A
330
42B
102
}
330
71
100
AcDbEntity
  8
0
  6
Continuous
 62
     2
100
AcDbLine
 10
-191.2303456919102
 20
-273.110405243826
 30
0.0
 11
-192.4231383940778
 21
-273.110405243826
 31
0.0
  0
LINE
  5
374
102
{ACAD_REACTORS
330
42A
330
42B
102
}
330
71
100
AcDbEntity
  8
0
  6
Continuous
 62
     2
100
AcDbLine
 10
-189.9898412816573
 20
-276.1642147676371
 30
0.0
 11
-188.7970485794909
 21
-276.1642147676371
 31
0.0
  0
LINE
  5
375
102
{ACAD_REACTORS
330
42A
330
42B
102
}
330
71
100
AcDbEntity
  8
0
  6
Continuous
 62
     2
100
AcDbLine
 10
-192.4231383940778
 20
-276.1642147676371
 30
0.0
 11
-191.2303456919102
 21
-276.1642147676371
 31
0.0
  0
LINE
  5
376
102
{ACAD_REACTORS
330
43A
330
43B
102
}
330
71
100
AcDbEntity
  8
0
  6
Continuous
 62
     2
100
AcDbLine
 10
-188.7491859405187
 20
-270.9291127268363
 30
0.0
 11
-188.7491859405187
 21
-270.4492283730946
 31
0.0
  0
LINE
  5
377
102
{ACAD_REACTORS
330
43A
330
43B
102
}
330
71
100
AcDbEntity
  8
0
  6
Continuous
 62
     2
100
AcDbLine
 10
-187.413258114091
 20
-270.9291127268363
 30
0.0
 11
-188.7491859405187
 21
-270.9291127268363
 31
0.0
  0
LINE
  5
378
102
{ACAD_REACTORS
330
43A
330
43B
102
}
330
71
100
AcDbEntity
  8
0
  6
Continuous
 62
     2
100
AcDbLine
 10
-187.413258114091
 20
-271.6271263322786
 30
0.0
 11
-187.413258114091
 21
-270.9291127268363
 31
0.0
  0
LINE
  5
379
102
{ACAD_REACTORS
330
43A
330
43B
102
}
330
71
100
AcDbEntity
  8
0
  6
Continuous
 62
     2
100
AcDbLine
 10
-188.7491859405187
 20
-271.6271263322786
 30
0.0
 11
-187.413258114091
 21
-271.6271263322786
 31
0.0
  0
LINE
  5
37A
102
{ACAD_REACTORS
330
428
330
429
102
}
330
71
100
AcDbEntity
  8
0
  6
Continuous
 62
     2
100
AcDbLine
 10
-192.2321406308456
 20
-269.7512147676516
 30
0.0
 11
-192.2321406308456
 21
-272.8050242914628
 31
0.0
  0
LINE
  5
37B
102
{ACAD_REACTORS
330
428
330
429
102
}
330
71
100
AcDbEntity
  8
0
  6
Continuous
 62
     2
100
AcDbLine
 10
-192.2321406308456
 20
-272.8050242914628
 30
0.0
 11
-193.424933333012
 21
-272.8050242914628
 31
0.0
  0
LINE
  5
37C
102
{ACAD_REACTORS
330
428
330
429
102
}
330
71
100
AcDbEntity
  8
0
  6
Continuous
 62
     2
100
AcDbLine
 10
-193.424933333012
 20
-272.8050242914628
 30
0.0
 11
-193.424933333012
 21
-271.670752182619
 31
0.0
  0
LINE
  5
37D
102
{ACAD_REACTORS
330
428
330
429
102
}
330
71
100
AcDbEntity
  8
0
  6
Continuous
 62
     2
100
AcDbLine
 10
-194.4745909109195
 20
-272.8050242914628
 30
0.0
 11
-195.6673836130861
 21
-272.8050242914628
 31
0.0
  0
LINE
  5
37E
102
{ACAD_REACTORS
330
428
330
429
102
}
330
71
100
AcDbEntity
  8
0
  6
Continuous
 62
     2
100
AcDbLine
 10
-195.6673836130861
 20
-269.7512147676516
 30
0.0
 11
-194.4745909109195
 21
-269.7512147676516
 31
0.0
  0
LINE
  5
37F
102
{ACAD_REACTORS
330
428
330
429
102
}
330
71
100
AcDbEntity
  8
0
  6
Continuous
 62
     2
100
AcDbLine
 10
-194.4745909109195
 20
-269.7512147676516
 30
0.0
 11
-194.4745909109195
 21
-270.8200481009862
 31
0.0
  0
LINE
  5
380
102
{ACAD_REACTORS
330
428
330
429
102
}
330
71
100
AcDbEntity
  8
0
  6
Continuous
 62
     2
100
AcDbLine
 10
-194.4745909109195
 20
-270.8200481009862
 30
0.0
 11
-193.424933333012
 21
-270.8200481009862
 31
0.0
  0
LINE
  5
381
102
{ACAD_REACTORS
330
436
330
437
102
}
330
71
100
AcDbEntity
  8
0
  6
Continuous
 62
     2
100
AcDbLine
 10
-197.6235636446397
 20
-270.4143206130917
 30
0.0
 11
-197.3062685830978
 21
-270.4143206130917
 31
0.0
  0
LINE
  5
382
102
{ACAD_REACTORS
330
436
330
437
102
}
330
71
100
AcDbEntity
  8
0
  6
Continuous
 62
     2
100
AcDbLine
 10
-197.6235636446397
 20
-271.1200482624339
 30
0.0
 11
-197.3062685830978
 21
-271.1200482624339
 31
0.0
  0
LINE
  5
383
102
{ACAD_REACTORS
330
436
330
437
102
}
330
71
100
AcDbEntity
  8
0
  6
Continuous
 62
     2
100
AcDbLine
 10
-198.8640680548938
 20
-269.7512147676516
 30
0.0
 11
-198.8640680548938
 21
-272.8050242914628
 31
0.0
  0
LINE
  5
384
102
{ACAD_REACTORS
330
436
330
437
102
}
330
71
100
AcDbEntity
  8
0
  6
Continuous
 62
     2
100
AcDbLine
 10
-198.8640680548938
 20
-269.7512147676516
 30
0.0
 11
-196.8647960568594
 21
-269.7512147676516
 31
0.0
  0
LINE
  5
385
102
{ACAD_REACTORS
330
436
330
437
102
}
330
71
100
AcDbEntity
  8
0
  6
Continuous
 62
     2
100
AcDbLine
 10
-197.6235636446397
 20
-271.861946050319
 30
0.0
 11
-196.8647960568594
 21
-271.861946050319
 31
0.0
  0
LINE
  5
386
102
{ACAD_REACTORS
330
43C
330
43D
102
}
330
71
100
AcDbEntity
  8
0
  6
Continuous
 62
     2
100
AcDbLine
 10
-204.9605640881905
 20
-270.7794872462864
 30
0.0
 11
-204.9605640881905
 21
-275.1359422890035
 31
0.0
  0
LINE
  5
387
102
{ACAD_REACTORS
330
43C
330
43D
102
}
330
71
100
AcDbEntity
  8
0
  6
Continuous
 62
     2
100
AcDbLine
 10
-204.6448471651148
 20
-270.4637703232102
 30
0.0
 11
-203.1690139041052
 21
-270.4637703232102
 31
0.0
  0
LINE
  5
388
102
{ACAD_REACTORS
330
43C
330
43D
102
}
330
71
100
AcDbEntity
  8
0
  6
Continuous
 62
     2
100
AcDbLine
 10
-202.8532969810286
 20
-271.3835118653469
 30
0.0
 11
-202.8532969810286
 21
-270.7794872462864
 31
0.0
  0
LINE
  5
389
102
{ACAD_REACTORS
330
43C
330
43D
102
}
330
71
100
AcDbEntity
  8
0
  6
Continuous
 62
     2
100
AcDbLine
 10
-202.8532969810286
 20
-275.1359422890035
 30
0.0
 11
-202.8532969810286
 21
-273.6051713574719
 31
0.0
  0
LINE
  5
38A
102
{ACAD_REACTORS
330
43C
330
43D
102
}
330
71
100
AcDbEntity
  8
0
  6
Continuous
 62
     2
100
AcDbLine
 10
-199.7654297511445
 20
-276.1642147676371
 30
0.0
 11
-205.2387418418613
 21
-276.1642147676371
 31
0.0
  0
LINE
  5
38B
102
{ACAD_REACTORS
330
43C
330
43D
102
}
330
71
100
AcDbEntity
  8
0
  6
Continuous
 62
     2
100
AcDbLine
 10
-199.3411851357606
 20
-270.1754593830536
 30
0.0
 11
-199.3411851357606
 21
-275.7399701522538
 31
0.0
  0
LINE
  5
38C
102
{ACAD_REACTORS
330
43C
330
43D
102
}
330
71
100
AcDbEntity
  8
0
  6
Continuous
 62
     2
100
AcDbLine
 10
-205.2387418418613
 20
-269.7512147676698
 30
0.0
 11
-199.7654297511445
 21
-269.7512147676698
 31
0.0
  0
LINE
  5
38D
102
{ACAD_REACTORS
330
43C
330
43D
102
}
330
71
100
AcDbEntity
  8
0
  6
Continuous
 62
     2
100
AcDbLine
 10
-205.6629864572441
 20
-270.1754593830536
 30
0.0
 11
-205.6629864572441
 21
-275.7399701522538
 31
0.0
  0
LINE
  5
38E
102
{ACAD_REACTORS
330
43C
330
43D
102
}
330
71
100
AcDbEntity
  8
0
  6
Continuous
 62
     2
100
AcDbLine
 10
-203.1690139041052
 20
-275.4516592120802
 30
0.0
 11
-204.6448471651148
 21
-275.4516592120802
 31
0.0
  0
LINE
  5
38F
102
{ACAD_REACTORS
330
436
330
437
102
}
330
71
100
AcDbEntity
  8
0
  6
Continuous
 62
     2
100
AcDbLine
 10
-197.6235636446397
 20
-272.8050242914628
 30
0.0
 11
-197.6235636446397
 21
-271.861946050319
 31
0.0
  0
LINE
  5
390
102
{ACAD_REACTORS
330
436
330
437
102
}
330
71
100
AcDbEntity
  8
0
  6
Continuous
 62
     2
100
AcDbLine
 10
-198.8640680548938
 20
-272.8050242914628
 30
0.0
 11
-197.6235636446397
 21
-272.8050242914628
 31
0.0
  0
LINE
  5
391
102
{ACAD_REACTORS
330
436
330
437
102
}
330
71
100
AcDbEntity
  8
0
  6
Continuous
 62
     2
100
AcDbLine
 10
-197.6235636446397
 20
-271.1200482624339
 30
0.0
 11
-197.6235636446397
 21
-270.4143206130917
 31
0.0
  0
LINE
  5
392
102
{ACAD_REACTORS
330
428
330
429
102
}
330
71
100
AcDbEntity
  8
0
  6
Continuous
 62
     2
100
AcDbLine
 10
-195.6673836130861
 20
-269.7512147676516
 30
0.0
 11
-195.6673836130861
 21
-272.8050242914628
 31
0.0
  0
LINE
  5
393
102
{ACAD_REACTORS
330
428
330
429
102
}
330
71
100
AcDbEntity
  8
0
  6
Continuous
 62
     2
100
AcDbLine
 10
-194.4745909109195
 20
-271.670752182619
 30
0.0
 11
-194.4745909109195
 21
-272.8050242914628
 31
0.0
  0
LINE
  5
394
102
{ACAD_REACTORS
330
428
330
429
102
}
330
71
100
AcDbEntity
  8
0
  6
Continuous
 62
     2
100
AcDbLine
 10
-193.424933333012
 20
-271.670752182619
 30
0.0
 11
-194.4745909109195
 21
-271.670752182619
 31
0.0
  0
LINE
  5
395
102
{ACAD_REACTORS
330
428
330
429
102
}
330
71
100
AcDbEntity
  8
0
  6
Continuous
 62
     2
100
AcDbLine
 10
-193.424933333012
 20
-269.7512147676516
 30
0.0
 11
-192.2321406308456
 21
-269.7512147676516
 31
0.0
  0
LINE
  5
396
102
{ACAD_REACTORS
330
428
330
429
102
}
330
71
100
AcDbEntity
  8
0
  6
Continuous
 62
     2
100
AcDbLine
 10
-193.424933333012
 20
-270.8200481009862
 30
0.0
 11
-193.424933333012
 21
-269.7512147676516
 31
0.0
  0
LINE
  5
397
102
{ACAD_REACTORS
330
43A
330
43B
102
}
330
71
100
AcDbEntity
  8
0
  6
Continuous
 62
     2
100
AcDbLine
 10
-187.413258114091
 20
-270.4492283730946
 30
0.0
 11
-187.413258114091
 21
-269.7512147676516
 31
0.0
  0
LINE
  5
398
102
{ACAD_REACTORS
330
43A
330
43B
102
}
330
71
100
AcDbEntity
  8
0
  6
Continuous
 62
     2
100
AcDbLine
 10
-190.563577837872
 20
-269.7512147676516
 30
0.0
 11
-187.413258114091
 21
-269.7512147676516
 31
0.0
  0
LINE
  5
399
102
{ACAD_REACTORS
330
43A
330
43B
102
}
330
71
100
AcDbEntity
  8
0
  6
Continuous
 62
     2
100
AcDbLine
 10
-190.563577837872
 20
-272.8050242914628
 30
0.0
 11
-187.413258114091
 21
-272.8050242914628
 31
0.0
  0
LINE
  5
39A
102
{ACAD_REACTORS
330
43A
330
43B
102
}
330
71
100
AcDbEntity
  8
0
  6
Continuous
 62
     2
100
AcDbLine
 10
-187.413258114091
 20
-272.8050242914628
 30
0.0
 11
-187.413258114091
 21
-272.1070106860203
 31
0.0
  0
LINE
  5
39B
102
{ACAD_REACTORS
330
43A
330
43B
102
}
330
71
100
AcDbEntity
  8
0
  6
Continuous
 62
     2
100
AcDbLine
 10
-187.413258114091
 20
-272.1070106860203
 30
0.0
 11
-188.7491859405187
 21
-272.1070106860203
 31
0.0
  0
LINE
  5
39C
102
{ACAD_REACTORS
330
43A
330
43B
102
}
330
71
100
AcDbEntity
  8
0
  6
Continuous
 62
     2
100
AcDbLine
 10
-188.7491859405187
 20
-272.1070106860203
 30
0.0
 11
-188.7491859405187
 21
-271.6271263322786
 31
0.0
  0
LINE
  5
39D
102
{ACAD_REACTORS
330
43A
330
43B
102
}
330
71
100
AcDbEntity
  8
0
  6
Continuous
 62
     2
100
AcDbLine
 10
-188.7491859405187
 20
-270.4492283730946
 30
0.0
 11
-187.413258114091
 21
-270.4492283730946
 31
0.0
  0
LINE
  5
39E
102
{ACAD_REACTORS
330
42A
330
42B
102
}
330
71
100
AcDbEntity
  8
0
  6
Continuous
 62
     2
100
AcDbLine
 10
-191.2303456919102
 20
-276.1642147676371
 30
0.0
 11
-191.2303456919102
 21
-274.8554392574325
 31
0.0
  0
LINE
  5
39F
102
{ACAD_REACTORS
330
42A
330
42B
102
}
330
71
100
AcDbEntity
  8
0
  6
Continuous
 62
     2
100
AcDbLine
 10
-191.2303456919102
 20
-274.8554392574325
 30
0.0
 11
-189.9898412816573
 21
-276.1642147676371
 31
0.0
  0
LINE
  5
3A0
102
{ACAD_REACTORS
330
42A
330
42B
102
}
330
71
100
AcDbEntity
  8
0
  6
Continuous
 62
     2
100
AcDbLine
 10
-188.7970485794909
 20
-276.1642147676371
 30
0.0
 11
-188.7970485794909
 21
-273.110405243826
 31
0.0
  0
LINE
  5
3A1
102
{ACAD_REACTORS
330
42A
330
42B
102
}
330
71
100
AcDbEntity
  8
0
  6
Continuous
 62
     2
100
AcDbLine
 10
-188.7970485794909
 20
-273.110405243826
 30
0.0
 11
-189.9898412816573
 21
-273.110405243826
 31
0.0
  0
LINE
  5
3A2
102
{ACAD_REACTORS
330
42A
330
42B
102
}
330
71
100
AcDbEntity
  8
0
  6
Continuous
 62
     2
100
AcDbLine
 10
-189.9898412816573
 20
-273.110405243826
 30
0.0
 11
-189.9898412816573
 21
-274.4191807540311
 31
0.0
  0
LINE
  5
3A3
102
{ACAD_REACTORS
330
42A
330
42B
102
}
330
71
100
AcDbEntity
  8
0
  6
Continuous
 62
     2
100
AcDbLine
 10
-189.9898412816573
 20
-274.4191807540311
 30
0.0
 11
-191.2303456919102
 21
-273.110405243826
 31
0.0
  0
LINE
  5
3A4
102
{ACAD_REACTORS
330
42C
330
42D
102
}
330
71
100
AcDbEntity
  8
0
  6
Continuous
 62
     2
100
AcDbLine
 10
-185.9819068714916
 20
-271.4962487812581
 30
0.0
 11
-184.7414024612376
 21
-272.8050242914628
 31
0.0
  0
LINE
  5
3A5
102
{ACAD_REACTORS
330
42C
330
42D
102
}
330
71
100
AcDbEntity
  8
0
  6
Continuous
 62
     2
100
AcDbLine
 10
-184.7414024612376
 20
-272.8050242914628
 30
0.0
 11
-183.548609759071
 21
-272.8050242914628
 31
0.0
  0
LINE
  5
3A6
102
{ACAD_REACTORS
330
42C
330
42D
102
}
330
71
100
AcDbEntity
  8
0
  6
Continuous
 62
     2
100
AcDbLine
 10
-183.548609759071
 20
-272.8050242914628
 30
0.0
 11
-183.548609759071
 21
-269.7512147676516
 31
0.0
  0
LINE
  5
3A7
102
{ACAD_REACTORS
330
42C
330
42D
102
}
330
71
100
AcDbEntity
  8
0
  6
Continuous
 62
     2
100
AcDbLine
 10
-183.548609759071
 20
-269.7512147676516
 30
0.0
 11
-184.7414024612376
 21
-269.7512147676516
 31
0.0
  0
LINE
  5
3A8
102
{ACAD_REACTORS
330
42C
330
42D
102
}
330
71
100
AcDbEntity
  8
0
  6
Continuous
 62
     2
100
AcDbLine
 10
-184.7414024612376
 20
-271.0599902778567
 30
0.0
 11
-185.9819068714916
 21
-269.7512147676516
 31
0.0
  0
LINE
  5
3A9
102
{ACAD_REACTORS
330
42C
330
42D
102
}
330
71
100
AcDbEntity
  8
0
  6
Continuous
 62
     2
100
AcDbLine
 10
-187.1746995736581
 20
-272.8050242914628
 30
0.0
 11
-185.9819068714916
 21
-272.8050242914628
 31
0.0
  0
LINE
  5
3AA
102
{ACAD_REACTORS
330
42E
330
42F
102
}
330
71
100
AcDbEntity
  8
0
  6
Continuous
 62
     2
100
AcDbLine
 10
-188.6539134552307
 20
-273.110405243826
 30
0.0
 11
-188.6539134552307
 21
-273.8956705499496
 31
0.0
  0
LINE
  5
3AB
102
{ACAD_REACTORS
330
42E
330
42F
102
}
330
71
100
AcDbEntity
  8
0
  6
Continuous
 62
     2
100
AcDbLine
 10
-187.8428144177561
 20
-273.8956705499496
 30
0.0
 11
-187.8428144177561
 21
-276.1642147676371
 31
0.0
  0
LINE
  5
3AC
102
{ACAD_REACTORS
330
42E
330
42F
102
}
330
71
100
AcDbEntity
  8
0
  6
Continuous
 62
     2
100
AcDbLine
 10
-187.8428144177561
 20
-276.1642147676371
 30
0.0
 11
-186.6500217155896
 21
-276.1642147676371
 31
0.0
  0
LINE
  5
3AD
102
{ACAD_REACTORS
330
430
330
431
102
}
330
71
100
AcDbEntity
  8
0
  6
Continuous
 62
     2
100
AcDbLine
 10
-183.7004952221701
 20
-276.1642147676371
 30
0.0
 11
-183.9119752756459
 21
-275.6232542234192
 31
0.0
  0
LINE
  5
3AE
102
{ACAD_REACTORS
330
430
330
431
102
}
330
71
100
AcDbEntity
  8
0
  6
Continuous
 62
     2
100
AcDbLine
 10
-183.8579438588565
 20
-273.110405243826
 30
0.0
 11
-182.4599908119162
 21
-276.1642147676371
 31
0.0
  0
LINE
  5
3AF
102
{ACAD_REACTORS
330
430
330
431
102
}
330
71
100
AcDbEntity
  8
0
  6
Continuous
 62
     2
100
AcDbLine
 10
-185.0984482691092
 20
-273.110405243826
 30
0.0
 11
-183.8579438588565
 21
-273.110405243826
 31
0.0
  0
LINE
  5
3B0
102
{ACAD_REACTORS
330
430
330
431
102
}
330
71
100
AcDbEntity
  8
0
  6
Continuous
 62
     2
100
AcDbLine
 10
-186.4964013160485
 20
-276.1642147676371
 30
0.0
 11
-185.2558969057955
 21
-276.1642147676371
 31
0.0
  0
LINE
  5
3B1
102
{ACAD_REACTORS
330
430
330
431
102
}
330
71
100
AcDbEntity
  8
0
  6
Continuous
 62
     2
100
AcDbLine
 10
-184.7783613011747
 20
-274.9426909581126
 30
0.0
 11
-184.1780308267922
 21
-274.9426909581126
 31
0.0
  0
LINE
  5
3B2
102
{ACAD_REACTORS
330
430
330
431
102
}
330
71
100
AcDbEntity
  8
0
  6
Continuous
 62
     2
100
AcDbLine
 10
-184.1780308267922
 20
-274.9426909581126
 30
0.0
 11
-184.4781960639823
 21
-274.1748759921259
 31
0.0
  0
LINE
  5
3B3
102
{ACAD_REACTORS
330
432
330
433
102
}
330
71
100
AcDbEntity
  8
0
  6
Continuous
 62
     2
100
AcDbLine
 10
-182.0695468083842
 20
-272.8050242914628
 30
0.0
 11
-183.3100512186371
 21
-272.8050242914628
 31
0.0
  0
LINE
  5
3B4
102
{ACAD_REACTORS
330
434
330
435
102
}
330
71
100
AcDbEntity
  8
0
  6
Continuous
 62
     2
100
AcDbLine
 10
-180.5475433204191
 20
-272.8050242914628
 30
0.0
 11
-181.9502675381673
 21
-272.8050242914628
 31
0.0
  0
LINE
  5
3B5
102
{ACAD_REACTORS
330
434
330
435
102
}
330
71
100
AcDbEntity
  8
0
  6
Continuous
 62
     2
100
AcDbLine
 10
-180.5475433204191
 20
-272.8050242914628
 30
0.0
 11
-179.8509523823534
 21
-272.017292506169
 31
0.0
  0
LINE
  5
3B6
102
{ACAD_REACTORS
330
434
330
435
102
}
330
71
100
AcDbEntity
  8
0
  6
Continuous
 62
     2
100
AcDbLine
 10
-179.2497848604606
 20
-269.7512147676516
 30
0.0
 11
-177.8470606427134
 21
-269.7512147676516
 31
0.0
  0
LINE
  5
3B7
102
{ACAD_REACTORS
330
434
330
435
102
}
330
71
100
AcDbEntity
  8
0
  6
Continuous
 62
     2
100
AcDbLine
 10
-181.8548441219945
 20
-269.7512147676516
 30
0.0
 11
-180.552314491227
 21
-271.2241652976878
 31
0.0
  0
LINE
  5
3B8
102
{ACAD_REACTORS
330
434
330
435
102
}
330
71
100
AcDbEntity
  8
0
  6
Continuous
 62
     2
100
AcDbLine
 10
-181.9502675381673
 20
-272.8050242914628
 30
0.0
 11
-180.552314491227
 21
-271.2241652976878
 31
0.0
  0
LINE
  5
3B9
102
{ACAD_REACTORS
330
43E
330
43F
102
}
330
71
100
AcDbEntity
  8
0
  6
Continuous
 62
     2
100
AcDbLine
 10
-180.0895109227874
 20
-275.1171943594735
 30
0.0
 11
-180.0895109227874
 21
-275.9897113662768
 31
0.0
  0
LINE
  5
3BA
102
{ACAD_REACTORS
330
43E
330
43F
102
}
330
71
100
AcDbEntity
  8
0
  6
Continuous
 62
     2
100
AcDbLine
 10
-180.8591682657488
 20
-273.8956705499496
 30
0.0
 11
-179.7555289661807
 21
-273.8956705499496
 31
0.0
  0
LINE
  5
3BB
102
{ACAD_REACTORS
330
440
330
441
102
}
330
71
100
AcDbEntity
  8
0
  6
Continuous
 62
     2
100
AcDbLine
 10
-196.1922124020393
 20
-275.117194359473
 30
0.0
 11
-196.1922124020393
 21
-275.9897113662762
 31
0.0
  0
LINE
  5
3BC
102
{ACAD_REACTORS
330
440
330
441
102
}
330
71
100
AcDbEntity
  8
0
  6
Continuous
 62
     2
100
AcDbLine
 10
-196.1922124020393
 20
-274.1574256519901
 30
0.0
 11
-196.1922124020393
 21
-273.2849086451868
 31
0.0
  0
LINE
  5
3BD
330
71
100
AcDbEntity
  8
1
  6
Continuous
 62
     7
100
AcDbLine
 10
-80.35483681705543
 20
-274.9577147676534
 30
0.0
 11
-173.4996413438068
 21
-274.9577147676534
 31
0.0
  0
LINE
  5
3BE
330
71
100
AcDbEntity
  8
1
  6
Continuous
 62
     6
100
AcDbLine
 10
-278.8996413438067
 20
-283.4577147676534
 30
0.0
 11
-323.8548368170567
 21
-283.4577147676534
 31
0.0
  0
LINE
  5
3BF
330
71
100
AcDbEntity
  8
1
  6
Continuous
 62
     7
100
AcDbLine
 10
-89.27324509873424
 20
-257.9577147676534
 30
0.0
 11
-89.27324509873424
 21
-266.4577147676534
 31
0.0
  0
LINE
  5
3C0
330
71
100
AcDbEntity
  8
1
  6
Continuous
 62
     7
100
AcDbLine
 10
-115.7732450987338
 20
-257.9577147676534
 30
0.0
 11
-115.7732450987338
 21
-266.4577147676534
 31
0.0
  0
LINE
  5
3C1
330
71
100
AcDbEntity
  8
1
  6
Continuous
 62
     7
100
AcDbLine
 10
-173.4996413438068
 20
-266.4577147676534
 30
0.0
 11
-173.4996413438068
 21
-257.9577147676534
 31
0.0
  0
LINE
  5
3C2
330
71
100
AcDbEntity
  8
1
  6
Continuous
 62
     7
100
AcDbLine
 10
-209.8996413438067
 20
-266.4577147676534
 30
0.0
 11
-209.8996413438067
 21
-257.9577147676534
 31
0.0
  0
LINE
  5
3C3
330
71
100
AcDbEntity
  8
1
  6
Continuous
 62
     6
100
AcDbLine
 10
-173.4996413438068
 20
-266.4577147676534
 30
0.0
 11
-80.35483681705503
 21
-266.4577147676534
 31
0.0
  0
LINE
  5
3C4
330
71
100
AcDbEntity
  8
1
  6
Continuous
 62
     7
100
AcDbLine
 10
-145.5996413438067
 20
-274.9577147676534
 30
0.0
 11
-145.5996413438067
 21
-266.4577147676534
 31
0.0
  0
LINE
  5
3C5
330
71
100
AcDbEntity
  8
1
  6
PHANTOM
 62
     2
100
AcDbLine
 10
-194.4129864572441
 20
-262.3327147676534
 30
0.0
 11
-199.9129864572441
 21
-262.3327147676534
 31
0.0
  0
LINE
  5
3C6
330
71
100
AcDbEntity
  8
1
  6
PHANTOM
 62
     2
100
AcDbLine
 10
-197.1629864572441
 20
-259.5827147676534
 30
0.0
 11
-197.1629864572441
 21
-265.0827147676534
 31
0.0
  0
LINE
  5
3C7
330
71
100
AcDbEntity
  8
1
  6
DOT_CENTER
 62
     2
100
AcDbLine
 10
-205.9129864572441
 20
-262.3327147676534
 30
0.0
 11
-200.4129864572441
 21
-262.3327147676534
 31
0.0
  0
ARC
  5
3C8
102
{ACAD_REACTORS
330
440
330
441
102
}
330
71
100
AcDbEntity
  8
0
  6
Continuous
 62
     2
100
AcDbCircle
 10
-197.5281403191571
 20
-277.9499909509877
 30
0.0
 40
4.85259686349804
100
AcDbArc
 50
74.02000874164729
 51
84.84185523037502
  0
ARC
  5
3C9
102
{ACAD_REACTORS
330
440
330
441
102
}
330
71
100
AcDbEntity
  8
0
  6
Continuous
 62
     2
100
AcDbCircle
 10
-196.9520997104034
 20
-274.7942305951034
 30
0.0
 40
0.9059297849853228
100
AcDbArc
 50
71.55192388185348
 51
113.3722778881306
  0
ARC
  5
3CA
102
{ACAD_REACTORS
330
440
330
441
102
}
330
71
100
AcDbEntity
  8
0
  6
Continuous
 62
     2
100
AcDbCircle
 10
-197.1085397431054
 20
-274.8423814350703
 30
0.0
 40
0.5115800601948034
100
AcDbArc
 50
208.5214732576956
 51
246.6277221118245
  0
ARC
  5
3CB
102
{ACAD_REACTORS
330
440
330
441
102
}
330
71
100
AcDbEntity
  8
0
  6
Continuous
 62
     2
100
AcDbCircle
 10
-196.9520997104034
 20
-274.4803894163603
 30
0.0
 40
0.9059297849849305
100
AcDbArc
 50
246.6277221118694
 51
288.448076118159
  0
ARC
  5
3CC
102
{ACAD_REACTORS
330
440
330
441
102
}
330
71
100
AcDbEntity
  8
0
  6
Continuous
 62
     2
100
AcDbCircle
 10
-197.3702674440642
 20
-273.2268436403231
 30
0.0
 40
2.227384008972719
100
AcDbArc
 50
288.4480761181337
 51
301.9309089499603
  0
ARC
  5
3CD
102
{ACAD_REACTORS
330
43C
330
43D
102
}
330
71
100
AcDbEntity
  8
0
  6
Continuous
 62
     2
100
AcDbCircle
 10
-202.595341176671
 20
-272.4943416114091
 30
0.0
 40
0.9118481501444968
100
AcDbArc
 50
295.3740086781773
 51
64.62599132180586
  0
ARC
  5
3CE
102
{ACAD_REACTORS
330
43C
330
43D
102
}
330
71
100
AcDbEntity
  8
0
  6
Continuous
 62
     2
100
AcDbCircle
 10
-202.0692984785831
 20
-270.7796647229345
 30
0.0
 40
0.3157169230760711
100
AcDbArc
 50
90.18896704254594
 51
180.0
  0
ARC
  5
3CF
102
{ACAD_REACTORS
330
43E
330
43F
102
}
330
71
100
AcDbEntity
  8
0
  6
Continuous
 62
     2
100
AcDbCircle
 10
-180.8591682657488
 20
-274.8501935567757
 30
0.0
 40
0.9545230068260935
100
AcDbArc
 50
90.0
 51
109.337143219432
  0
ARC
  5
3D0
102
{ACAD_REACTORS
330
43E
330
43F
102
}
330
71
100
AcDbEntity
  8
0
  6
Continuous
 62
     2
100
AcDbCircle
 10
-180.6284810057711
 20
-274.6373100057318
 30
0.0
 40
0.941059735334906
100
AcDbArc
 50
151.4785267423609
 51
208.5214732576695
  0
ARC
  5
3D1
102
{ACAD_REACTORS
330
43E
330
43F
102
}
330
71
100
AcDbEntity
  8
0
  6
Continuous
 62
     2
100
AcDbCircle
 10
-180.8493982311494
 20
-274.4803894163603
 30
0.0
 40
0.9059297849852801
100
AcDbArc
 50
246.6277221118183
 51
288.4480761180817
  0
ARC
  5
3D2
102
{ACAD_REACTORS
330
43E
330
43F
102
}
330
71
100
AcDbEntity
  8
0
  6
Continuous
 62
     2
100
AcDbCircle
 10
-181.2675659648113
 20
-273.2268436403237
 30
0.0
 40
2.227384008972773
100
AcDbArc
 50
288.4480761181333
 51
301.9309089499387
  0
ARC
  5
3D3
102
{ACAD_REACTORS
330
43E
330
43F
102
}
330
71
100
AcDbEntity
  8
0
  6
Continuous
 62
     2
100
AcDbCircle
 10
-181.4254388399041
 20
-271.3246290604754
 30
0.0
 40
4.852596863498825
100
AcDbArc
 50
275.1581447696364
 51
285.9799912583383
  0
ARC
  5
3D4
102
{ACAD_REACTORS
330
43E
330
43F
102
}
330
71
100
AcDbEntity
  8
0
  6
Continuous
 62
     2
100
AcDbCircle
 10
-181.1365827451683
 20
-274.524519643697
 30
0.0
 40
1.639695123940421
100
AcDbArc
 50
195.0618917771015
 51
275.1581447696772
  0
ARC
  5
3D5
102
{ACAD_REACTORS
330
436
330
437
102
}
330
71
100
AcDbEntity
  8
0
  6
Continuous
 62
     2
100
AcDbCircle
 10
-196.8647960568594
 20
-270.8065804089853
 30
0.0
 40
1.055365641333651
100
AcDbArc
 50
270.0
 51
90.0
  0
ARC
  5
3D6
102
{ACAD_REACTORS
330
43C
330
43D
102
}
330
71
100
AcDbEntity
  8
0
  6
Continuous
 62
     2
100
AcDbCircle
 10
-204.6448471651148
 20
-275.1359422890035
 30
0.0
 40
0.3157169230756836
100
AcDbArc
 50
180.0
 51
270.0
  0
ARC
  5
3D7
102
{ACAD_REACTORS
330
43C
330
43D
102
}
330
71
100
AcDbEntity
  8
0
  6
Continuous
 62
     2
100
AcDbCircle
 10
-203.1690139041052
 20
-270.7794872462864
 30
0.0
 40
0.3157169230766215
100
AcDbArc
 50
0.0
 51
90.0
  0
ARC
  5
3D8
102
{ACAD_REACTORS
330
43C
330
43D
102
}
330
71
100
AcDbEntity
  8
0
  6
Continuous
 62
     2
100
AcDbCircle
 10
-203.1690139041052
 20
-271.3835118653469
 30
0.0
 40
0.3157169230760295
100
AcDbArc
 50
295.1944106485531
 51
0.0
  0
ARC
  5
3D9
102
{ACAD_REACTORS
330
43C
330
43D
102
}
330
71
100
AcDbEntity
  8
0
  6
Continuous
 62
     2
100
AcDbCircle
 10
-203.1690139041052
 20
-275.1359422890035
 30
0.0
 40
0.3157169230767067
100
AcDbArc
 50
270.0
 51
0.0
  0
ARC
  5
3DA
102
{ACAD_REACTORS
330
43C
330
43D
102
}
330
71
100
AcDbEntity
  8
0
  6
Continuous
 62
     2
100
AcDbCircle
 10
-205.2387418418613
 20
-270.1754593830536
 30
0.0
 40
0.4242446153837705
100
AcDbArc
 50
90.0
 51
180.0
  0
ARC
  5
3DB
102
{ACAD_REACTORS
330
43C
330
43D
102
}
330
71
100
AcDbEntity
  8
0
  6
Continuous
 62
     2
100
AcDbCircle
 10
-199.7654297511445
 20
-270.1754593830536
 30
0.0
 40
0.4242446153838841
100
AcDbArc
 50
0.0
 51
90.0
  0
ARC
  5
3DC
102
{ACAD_REACTORS
330
43C
330
43D
102
}
330
71
100
AcDbEntity
  8
0
  6
Continuous
 62
     2
100
AcDbCircle
 10
-199.7654297511445
 20
-275.7399701522538
 30
0.0
 40
0.4242446153832589
100
AcDbArc
 50
270.0
 51
0.0
  0
ARC
  5
3DD
102
{ACAD_REACTORS
330
43A
330
43B
102
}
330
71
100
AcDbEntity
  8
0
  6
Continuous
 62
     2
100
AcDbCircle
 10
-190.547045864053
 20
-271.2781195295574
 30
0.0
 40
0.7717997786797075
100
AcDbArc
 50
321.8795802028371
 51
38.12041979715293
  0
ARC
  5
3DE
102
{ACAD_REACTORS
330
43A
330
43B
102
}
330
71
100
AcDbEntity
  8
0
  6
Continuous
 62
     2
100
AcDbCircle
 10
-190.3473058277068
 20
-271.4348507076779
 30
0.0
 40
0.5179085730134372
100
AcDbArc
 50
218.1204197971511
 51
321.8795802028566
  0
ARC
  5
3DF
102
{ACAD_REACTORS
330
438
330
439
102
}
330
71
100
AcDbEntity
  8
0
  6
Continuous
 62
     2
100
AcDbCircle
 10
-194.027313416667
 20
-274.6373100057318
 30
0.0
 40
1.458034083651977
100
AcDbArc
 50
297.5481481757016
 51
62.45185182429947
  0
ARC
  5
3E0
102
{ACAD_REACTORS
330
438
330
439
102
}
330
71
100
AcDbEntity
  8
0
  6
Continuous
 62
     2
100
AcDbCircle
 10
-194.5891932003336
 20
-274.6373100057318
 30
0.0
 40
1.458034083651528
100
AcDbArc
 50
117.5481481756629
 51
242.451851824336
  0
ARC
  5
3E1
102
{ACAD_REACTORS
330
438
330
439
102
}
330
71
100
AcDbEntity
  8
0
  6
Continuous
 62
     2
100
AcDbCircle
 10
-194.3082533085003
 20
-275.1758850160346
 30
0.0
 40
2.065479772208593
100
AcDbArc
 50
62.45185182430674
 51
117.5481481756667
  0
ARC
  5
3E2
102
{ACAD_REACTORS
330
438
330
439
102
}
330
71
100
AcDbEntity
  8
0
  6
Continuous
 62
     2
100
AcDbCircle
 10
-194.3082533085003
 20
-274.0987349954285
 30
0.0
 40
2.065479772208497
100
AcDbArc
 50
242.4518518243391
 51
297.5481481756875
  0
ARC
  5
3E3
102
{ACAD_REACTORS
330
43A
330
43B
102
}
330
71
100
AcDbEntity
  8
0
  6
Continuous
 62
     2
100
AcDbCircle
 10
-190.1475657913605
 20
-271.2781195295574
 30
0.0
 40
0.7717997786796023
100
AcDbArc
 50
141.8795802028471
 51
218.1204197971629
  0
ARC
  5
3E4
102
{ACAD_REACTORS
330
43A
330
43B
102
}
330
71
100
AcDbEntity
  8
0
  6
Continuous
 62
     2
100
AcDbCircle
 10
-190.3473058277068
 20
-271.121388351437
 30
0.0
 40
0.5179085730135266
100
AcDbArc
 50
38.12041979714334
 51
141.8795802028489
  0
ARC
  5
3E5
102
{ACAD_REACTORS
330
43C
330
43D
102
}
330
71
100
AcDbEntity
  8
0
  6
Continuous
 62
     2
100
AcDbCircle
 10
-205.2387418418613
 20
-275.7399701522538
 30
0.0
 40
0.4242446153828041
100
AcDbArc
 50
180.0
 51
270.0
  0
ARC
  5
3E6
102
{ACAD_REACTORS
330
43C
330
43D
102
}
330
71
100
AcDbEntity
  8
0
  6
Continuous
 62
     2
100
AcDbCircle
 10
-203.1690139041052
 20
-273.6051713574719
 30
0.0
 40
0.3157169230766215
100
AcDbArc
 50
0.0
 51
64.80558935145561
  0
ARC
  5
3E7
102
{ACAD_REACTORS
330
43C
330
43D
102
}
330
71
100
AcDbEntity
  8
0
  6
Continuous
 62
     2
100
AcDbCircle
 10
-202.6464294565302
 20
-272.4943416114091
 30
0.0
 40
0.9118975235576917
100
AcDbArc
 50
115.194410648526
 51
244.8055893514878
  0
ARC
  5
3E8
102
{ACAD_REACTORS
330
43C
330
43D
102
}
330
71
100
AcDbEntity
  8
0
  6
Continuous
 62
     2
100
AcDbCircle
 10
-204.6448471651148
 20
-270.7794872462864
 30
0.0
 40
0.3157169230761951
100
AcDbArc
 50
90.0
 51
180.0
  0
ARC
  5
3E9
102
{ACAD_REACTORS
330
436
330
437
102
}
330
71
100
AcDbEntity
  8
0
  6
Continuous
 62
     2
100
AcDbCircle
 10
-197.3062685830978
 20
-270.7671844377628
 30
0.0
 40
0.3528638246710898
100
AcDbArc
 50
270.0
 51
90.0
  0
ARC
  5
3EA
102
{ACAD_REACTORS
330
43A
330
43B
102
}
330
71
100
AcDbEntity
  8
0
  6
Continuous
 62
     2
100
AcDbCircle
 10
-190.563577837872
 20
-271.2781195295574
 30
0.0
 40
1.526904761905769
100
AcDbArc
 50
90.0
 51
270.0
  0
ARC
  5
3EB
102
{ACAD_REACTORS
330
43E
330
43F
102
}
330
71
100
AcDbEntity
  8
0
  6
Continuous
 62
     2
100
AcDbCircle
 10
-181.1365827451683
 20
-274.7501003677667
 30
0.0
 40
1.639695123940214
100
AcDbArc
 50
90.0
 51
164.9381082228909
  0
ARC
  5
3EC
102
{ACAD_REACTORS
330
43E
330
43F
102
}
330
71
100
AcDbEntity
  8
0
  6
Continuous
 62
     2
100
AcDbCircle
 10
-181.5557105886299
 20
-274.6373100057318
 30
0.0
 40
1.205656168393032
100
AcDbArc
 50
164.9381082228976
 51
195.0618917770946
  0
ARC
  5
3ED
102
{ACAD_REACTORS
330
43E
330
43F
102
}
330
71
100
AcDbEntity
  8
0
  6
Continuous
 62
     2
100
AcDbCircle
 10
-181.0058382638525
 20
-274.8423814350703
 30
0.0
 40
0.5115800601960215
100
AcDbArc
 50
208.5214732576866
 51
246.6277221118449
  0
ARC
  5
3EE
102
{ACAD_REACTORS
330
43E
330
43F
102
}
330
71
100
AcDbEntity
  8
0
  6
Continuous
 62
     2
100
AcDbCircle
 10
-181.0058382638525
 20
-274.4322385763928
 30
0.0
 40
0.5115800601944143
100
AcDbArc
 50
109.3371432194853
 51
151.4785267424197
  0
ARC
  5
3EF
102
{ACAD_REACTORS
330
43C
330
43D
102
}
330
71
100
AcDbEntity
  8
0
  6
Continuous
 62
     2
100
AcDbCircle
 10
-202.0692984785831
 20
-274.1853346180726
 30
0.0
 40
0.315716923076792
100
AcDbArc
 50
180.0
 51
269.8110329574542
  0
ARC
  5
3F0
102
{ACAD_REACTORS
330
43C
330
43D
102
}
330
71
100
AcDbEntity
  8
0
  6
Continuous
 62
     2
100
AcDbCircle
 10
-202.0636823432731
 20
-272.4824996705036
 30
0.0
 40
2.018561131933266
100
AcDbArc
 50
269.8110329575858
 51
90.18896704241416
  0
ARC
  5
3F1
102
{ACAD_REACTORS
330
43C
330
43D
102
}
330
71
100
AcDbEntity
  8
0
  6
Continuous
 62
     2
100
AcDbCircle
 10
-202.0692984785831
 20
-271.3852000114413
 30
0.0
 40
0.315716923076792
100
AcDbArc
 50
180.0
 51
244.6259913216437
  0
ARC
  5
3F2
102
{ACAD_REACTORS
330
43C
330
43D
102
}
330
71
100
AcDbEntity
  8
0
  6
Continuous
 62
     2
100
AcDbCircle
 10
-202.0692984785831
 20
-273.6034832113775
 30
0.0
 40
0.3157169230765328
100
AcDbArc
 50
115.3740086783519
 51
180.0
  0
ARC
  5
3F3
102
{ACAD_REACTORS
330
440
330
441
102
}
330
71
100
AcDbEntity
  8
0
  6
Continuous
 62
     2
100
AcDbCircle
 10
-197.2392842244212
 20
-274.7501003677667
 30
0.0
 40
1.639695123940507
100
AcDbArc
 50
84.84185523036236
 51
164.9381082228829
  0
ARC
  5
3F4
102
{ACAD_REACTORS
330
440
330
441
102
}
330
71
100
AcDbEntity
  8
0
  6
Continuous
 62
     2
100
AcDbCircle
 10
-197.658412067884
 20
-274.6373100057318
 30
0.0
 40
1.205656168391001
100
AcDbArc
 50
164.9381082228716
 51
195.0618917770945
  0
ARC
  5
3F5
102
{ACAD_REACTORS
330
440
330
441
102
}
330
71
100
AcDbEntity
  8
0
  6
Continuous
 62
     2
100
AcDbCircle
 10
-197.2392842244212
 20
-274.524519643697
 30
0.0
 40
1.639695123939422
100
AcDbArc
 50
195.0618917770903
 51
275.1581447696395
  0
ARC
  5
3F6
102
{ACAD_REACTORS
330
440
330
441
102
}
330
71
100
AcDbEntity
  8
0
  6
Continuous
 62
     2
100
AcDbCircle
 10
-197.5281403191571
 20
-271.3246290604754
 30
0.0
 40
4.852596863498166
100
AcDbArc
 50
275.1581447696249
 51
285.9799912583529
  0
ARC
  5
3F7
102
{ACAD_REACTORS
330
440
330
441
102
}
330
71
100
AcDbEntity
  8
0
  6
Continuous
 62
     2
100
AcDbCircle
 10
-196.7311824850251
 20
-274.6373100057318
 30
0.0
 40
0.9410597353332545
100
AcDbArc
 50
151.4785267422669
 51
208.5214732577057
  0
ARC
  5
3F8
102
{ACAD_REACTORS
330
440
330
441
102
}
330
71
100
AcDbEntity
  8
0
  6
Continuous
 62
     2
100
AcDbCircle
 10
-197.1085397431054
 20
-274.4322385763928
 30
0.0
 40
0.5115800601949152
100
AcDbArc
 50
113.3722778882008
 51
151.4785267423044
  0
ARC
  5
3F9
102
{ACAD_REACTORS
330
440
330
441
102
}
330
71
100
AcDbEntity
  8
0
  6
Continuous
 62
     2
100
AcDbCircle
 10
-197.3702674440642
 20
-276.04777637114
 30
0.0
 40
2.227384008973517
100
AcDbArc
 50
58.06909105004049
 51
71.55192388186676
  0
ARC
  5
3FA
102
{ACAD_REACTORS
330
438
330
439
102
}
330
71
100
AcDbEntity
  8
0
  6
Continuous
 62
     2
100
AcDbCircle
 10
-194.3082533085003
 20
-274.4805788276113
 30
0.0
 40
0.5179085730132998
100
AcDbArc
 50
38.12041979714704
 51
141.8795802028588
  0
ARC
  5
3FB
102
{ACAD_REACTORS
330
438
330
439
102
}
330
71
100
AcDbEntity
  8
0
  6
Continuous
 62
     2
100
AcDbCircle
 10
-194.1085132721542
 20
-274.6373100057318
 30
0.0
 40
0.7717997786794808
100
AcDbArc
 50
141.8795802028346
 51
218.120419797162
  0
ARC
  5
3FC
102
{ACAD_REACTORS
330
438
330
439
102
}
330
71
100
AcDbEntity
  8
0
  6
Continuous
 62
     2
100
AcDbCircle
 10
-194.3082533085003
 20
-274.7940411838518
 30
0.0
 40
0.5179085730136828
100
AcDbArc
 50
218.1204197971857
 51
321.8795802028085
  0
ARC
  5
3FD
102
{ACAD_REACTORS
330
438
330
439
102
}
330
71
100
AcDbEntity
  8
0
  6
Continuous
 62
     2
100
AcDbCircle
 10
-194.5079933448467
 20
-274.6373100057318
 30
0.0
 40
0.7717997786796245
100
AcDbArc
 50
321.8795802028483
 51
38.12041979715494
  0
CIRCLE
  5
3FE
330
71
100
AcDbEntity
  8
1
  6
Continuous
 62
     2
100
AcDbCircle
 10
-197.1629864572441
 20
-262.3327147676534
 30
0.0
 40
2.5
  0
CIRCLE
  5
3FF
330
71
100
AcDbEntity
  8
1
  6
Continuous
 62
     2
100
AcDbCircle
 10
-197.1629864572441
 20
-262.3327147676534
 30
0.0
 40
1.249999999999915
  0
CIRCLE
  5
400
102
{ACAD_REACTORS
330
43C
330
43D
102
}
330
71
100
AcDbEntity
  8
0
  6
Continuous
 62
     2
100
AcDbCircle
 10
-202.6191561913438
 20
-272.4943416114091
 30
0.0
 40
0.470978932778479
  0
MTEXT
  5
401
330
71
100
AcDbEntity
  8
1
 62
     3
100
AcDbMText
 10
-367.3497690309849
 20
-96.66640661235459
 30
0.0
 40
1.8
 41
0.0
 71
     7
 72
     1
  3
Weitergabe sowie Vervielf\U+00e4ltigung dieses Dokuments, Verwertung und \PMitteilung seines Inhalts sind verboten, soweit nicht ausdr\U+00fccklich gestattet. \PZuwiderhandlungen verpflichten zu Schadenersatz. Alle Rechte f\U+00fcr den Fall\Pder Pat
  1
ent-, Gebrauchsmuster- oder Designeintragung vorbehalten.
  7
CONVERTER_11
 73
     1
 44
0.99639855942377
  0
MTEXT
  5
402
330
71
100
AcDbEntity
  8
1
 62
     3
100
AcDbMText
 10
-184.4966591921968
 20
-96.66640661235459
 30
0.0
 40
1.8
 41
0.0
 71
     7
 72
     1
  3
Transfer or duplication of this document as well as the utilisation or\Pcommunication of its content are not permitted unless express consent\Pis granted. Violations give rise to claims for damages. All rights reserved\Pin case of patent, utility mo
  1
del or design patent registrations.
  7
CONVERTER_11
 73
     1
 44
0.99639855942377
  0
TEXT
  5
403
330
71
100
AcDbEntity
  8
1
 62
     2
100
AcDbText
 10
-190.6996413438069
 20
-282.216731982645
 30
0.0
 40
1.8
  1
of
 41
0.9
  7
CONVERTER_11
100
AcDbText
  0
TEXT
  5
404
330
71
100
AcDbEntity
  8
1
 62
     2
100
AcDbText
 10
-208.8996413438067
 20
-282.2167319826451
 30
0.0
 40
1.8
  1
page
 41
0.9
  7
CONVERTER_11
100
AcDbText
  0
TEXT
  5
405
330
71
100
AcDbEntity
  8
1
 62
     2
100
AcDbText
 10
-200.2533763734647
 20
-282.2569634214554
 30
0.0
 40
1.8
  1
1
 41
0.9
  7
CONVERTER_11
100
AcDbText
  0
TEXT
  5
406
330
71
100
AcDbEntity
  8
1
 62
     2
100
AcDbText
 10
-185.4643325339932
 20
-282.2077147676535
 30
0.0
 40
1.8
  1
1
 41
0.9
  7
CONVERTER_11
100
AcDbText
  0
MTEXT
  5
408
330
71
100
AcDbEntity
  8
1
 62
     7
100
AcDbMText
 10
-126.9272390804312
 20
-280.2077147676532
 30
0.0
 40
3.0
 41
0.0
 71
     5
 72
     1
  1
ST 4-DIO 1N 5408/R-L
  7
CONVERTER_12
 73
     1
 44
1.20048019207683
  0
MTEXT
  5
409
330
71
100
AcDbEntity
  8
1
 62
     2
100
AcDbMText
 10
-172.4996413438068
 20
-275.9577147676534
 30
0.0
 40
1.8
 41
0.0
 71
     1
 72
     1
  1
description
  7
CONVERTER_11
 73
     1
 44
1.20048019207683
  0
MTEXT
  5
40A
330
71
100
AcDbEntity
  8
1
 62
     3
100
AcDbMText
 10
-183.6996413438068
 20
-262.3327147676534
 30
0.0
 40
2.5
 41
0.0
 71
     5
 72
     1
  1
DIN A4
  7
CONVERTER_11
 73
     1
 44
1.20048019207683
  0
MTEXT
  5
40B
330
71
100
AcDbEntity
  8
1
 62
     7
100
AcDbMText
 10
-369.8548368170558
 20
-260.9577147676534
 30
0.0
 40
3.5
 41
0.0
 71
     5
 72
     1
  1
D
  7
CONVERTER_11
 73
     1
 44
1.20048019207683
  0
MTEXT
  5
40C
330
71
100
AcDbEntity
  8
1
 62
     7
100
AcDbMText
 10
-369.8548368170558
 20
-208.4577147676534
 30
0.0
 40
3.5
 41
0.0
 71
     5
 72
     1
  1
C
  7
CONVERTER_11
 73
     1
 44
1.20048019207683
  0
MTEXT
  5
40D
330
71
100
AcDbEntity
  8
1
 62
     7
100
AcDbMText
 10
-369.8548368170558
 20
-158.4577147676534
 30
0.0
 40
3.5
 41
0.0
 71
     5
 72
     1
  1
B
  7
CONVERTER_11
 73
     1
 44
1.20048019207683
  0
MTEXT
  5
40E
330
71
100
AcDbEntity
  8
1
 62
     7
100
AcDbMText
 10
-369.8548368170558
 20
-105.9577147676534
 30
0.0
 40
3.5
 41
0.0
 71
     5
 72
     1
  1
A
  7
CONVERTER_11
 73
     1
 44
1.20048019207683
  0
MTEXT
  5
40F
330
71
100
AcDbEntity
  8
1
 62
     7
100
AcDbMText
 10
-99.60483681705753
 20
-285.9577147676535
 30
0.0
 40
3.5
 41
0.0
 71
     5
 72
     1
  1
6
  7
CONVERTER_11
 73
     1
 44
1.20048019207683
  0
MTEXT
  5
410
330
71
100
AcDbEntity
  8
1
 62
     7
100
AcDbMText
 10
-148.8548368170567
 20
-285.9577147676535
 30
0.0
 40
3.5
 41
0.0
 71
     5
 72
     1
  1
5
  7
CONVERTER_11
 73
     1
 44
1.20048019207683
  0
MTEXT
  5
411
330
71
100
AcDbEntity
  8
1
 62
     7
100
AcDbMText
 10
-198.8548368170568
 20
-285.9577147676535
 30
0.0
 40
3.5
 41
0.0
 71
     5
 72
     1
  1
4
  7
CONVERTER_11
 73
     1
 44
1.20048019207683
  0
MTEXT
  5
412
330
71
100
AcDbEntity
  8
1
 62
     7
100
AcDbMText
 10
-248.8548368170567
 20
-285.9577147676535
 30
0.0
 40
3.5
 41
0.0
 71
     5
 72
     1
  1
3
  7
CONVERTER_11
 73
     1
 44
1.20048019207683
  0
MTEXT
  5
413
330
71
100
AcDbEntity
  8
1
 62
     7
100
AcDbMText
 10
-298.8548368170567
 20
-285.9577147676535
 30
0.0
 40
3.5
 41
0.0
 71
     5
 72
     1
  1
2
  7
CONVERTER_11
 73
     1
 44
1.20048019207683
  0
MTEXT
  5
414
330
71
100
AcDbEntity
  8
1
 62
     7
100
AcDbMText
 10
-348.1048368170563
 20
-285.9577147676535
 30
0.0
 40
3.5
 41
0.0
 71
     5
 72
     1
  1
1
  7
CONVERTER_11
 73
     1
 44
1.20048019207683
  0
MTEXT
  5
415
330
71
100
AcDbEntity
  8
1
 62
     7
100
AcDbMText
 10
-77.85483681705773
 20
-260.9577147676534
 30
0.0
 40
3.5
 41
0.0
 71
     5
 72
     1
  1
D
  7
CONVERTER_11
 73
     1
 44
1.20048019207683
  0
MTEXT
  5
416
330
71
100
AcDbEntity
  8
1
 62
     7
100
AcDbMText
 10
-77.85483681705773
 20
-158.4577147676515
 30
0.0
 40
3.5
 41
0.0
 71
     5
 72
     1
  1
B
  7
CONVERTER_11
 73
     1
 44
1.20048019207683
  0
MTEXT
  5
417
330
71
100
AcDbEntity
  8
1
 62
     7
100
AcDbMText
 10
-77.85483681705773
 20
-105.9577147676534
 30
0.0
 40
3.5
 41
0.0
 71
     5
 72
     1
  1
A
  7
CONVERTER_11
 73
     1
 44
1.20048019207683
  0
MTEXT
  5
418
330
71
100
AcDbEntity
  8
1
 62
     7
100
AcDbMText
 10
-77.85483681705773
 20
-208.4577147676515
 30
0.0
 40
3.5
 41
0.0
 71
     5
 72
     1
  1
C
  7
CONVERTER_11
 73
     1
 44
1.20048019207683
  0
MTEXT
  5
419
330
71
100
AcDbEntity
  8
1
 62
     2
100
AcDbMText
 10
-244.3376560688542
 20
-270.7077147676534
 30
0.0
 40
2.0
 41
0.0
 71
     5
 72
     1
  1
General Information\P- Simplified representation\P- Document excluded from change process\P- Linear dimensions [mm]
  7
CONVERTER_11
 73
     1
 44
1.20048019207683
  0
TEXT
  5
41A
330
71
100
AcDbEntity
  8
1
 62
     7
100
AcDbText
 10
-171.999641343807
 20
-273.6577147676535
 30
0.0
 40
2.5
  1
3035247
 41
0.81
  7
CONVERTER_12
100
AcDbText
  0
MTEXT
  5
41B
330
71
100
AcDbEntity
  8
1
 62
     2
100
AcDbMText
 10
-172.3996413438067
 20
-267.4577147676534
 30
0.0
 40
1.8
 41
0.0
 71
     1
 72
     1
  1
ident.-No.
  7
CONVERTER_11
 73
     1
 44
1.20048019207683
  0
MTEXT
  5
41C
330
71
100
AcDbEntity
  8
1
 62
     2
100
AcDbMText
 10
-88.17324509873401
 20
-258.9577147676534
 30
0.0
 40
1.8
 41
0.0
 71
     1
 72
     1
  1
scale
  7
CONVERTER_11
 73
     1
 44
1.20048019207683
  0
MTEXT
  5
41E
330
71
100
AcDbEntity
  8
1
 62
     3
100
AcDbMText
 10
-84.81404095789442
 20
-265.1577147676533
 30
0.0
 40
2.5
 41
0.0
 71
     8
 72
     1
  1
1:1
  7
CONVERTER_13
 73
     1
 44
1.32052821128451
  0
TEXT
  5
41F
330
71
100
AcDbEntity
  8
1
 62
     7
100
AcDbText
 10
-172.3996413438067
 20
-265.1577147676535
 30
0.0
 40
2.5
  1
00945566
 41
0.81
  7
CONVERTER_12
100
AcDbText
  0
MTEXT
  5
421
330
71
100
AcDbEntity
  8
1
 62
     2
100
AcDbMText
 10
-172.3996413438067
 20
-258.9577147676534
 30
0.0
 40
1.8
 41
0.0
 71
     1
 72
     1
  1
document-No. / RI
  7
CONVERTER_14
 73
     1
 44
1.32052821128451
  0
TEXT
  5
422
330
71
100
AcDbEntity
  8
1
 62
     3
100
AcDbText
 10
-144.5996413438067
 20
-273.6577147676535
 30
0.0
 40
2.5
  1
 
 41
0.81
  7
CONVERTER_12
100
AcDbText
  0
MTEXT
  5
423
330
71
100
AcDbEntity
  8
1
 62
     2
100
AcDbMText
 10
-144.5996413438067
 20
-267.4577147676534
 30
0.0
 40
1.8
 41
0.0
 71
     1
 72
     1
  1
document-type
  7
CONVERTER_11
 73
     1
 44
1.20048019207683
  0
MTEXT
  5
424
330
71
100
AcDbEntity
  8
1
 62
     2
100
AcDbMText
 10
-114.7732450987338
 20
-258.9577147676534
 30
0.0
 40
1.8
 41
0.0
 71
     1
 72
     1
  1
date
  7
CONVERTER_11
 73
     1
 44
1.32052821128451
  0
TEXT
  5
425
330
71
100
AcDbEntity
  8
1
 62
     3
100
AcDbText
 10
-114.7732450987338
 20
-265.1577147676535
 30
0.0
 40
2.5
  1
06.04.2018
 41
0.81
  7
CONVERTER_12
100
AcDbText
  0
TEXT
  5
426
330
71
100
AcDbEntity
  8
1
 62
     7
100
AcDbText
 10
-152.3697291247509
 20
-265.1577147676535
 30
0.0
 40
2.5
  1
01
 41
0.81
  7
CONVERTER_12
100
AcDbText
  0
TEXT
  5
427
330
71
100
AcDbEntity
  8
1
 62
     7
100
AcDbText
 10
-154.5260936217929
 20
-265.1577147676535
 30
0.0
 40
2.5
  1
/
 41
0.9
  7
CONVERTER_11
100
AcDbText
  0
HATCH
  5
428
330
71
100
AcDbEntity
  8
1
  6
Continuous
 62
     2
100
AcDbHatch
 10
0.0
 20
0.0
 30
0.0
210
0.0
220
0.0
230
1.0
  2
_USER
 70
     0
 71
     1
 91
        1
 92
        1
 93
       12
 72
     1
 10
-192.2321406308456
 20
-272.8050242914628
 11
-193.424933333012
 21
-272.8050242914628
 72
     1
 10
-193.424933333012
 20
-272.8050242914628
 11
-193.424933333012
 21
-271.670752182619
 72
     1
 10
-193.424933333012
 20
-271.670752182619
 11
-194.4745909109195
 21
-271.670752182619
 72
     1
 10
-194.4745909109195
 20
-271.670752182619
 11
-194.4745909109195
 21
-272.8050242914628
 72
     1
 10
-194.4745909109195
 20
-272.8050242914628
 11
-195.6673836130861
 21
-272.8050242914628
 72
     1
 10
-195.6673836130861
 20
-272.8050242914628
 11
-195.6673836130861
 21
-269.7512147676516
 72
     1
 10
-195.6673836130861
 20
-269.7512147676516
 11
-194.4745909109195
 21
-269.7512147676516
 72
     1
 10
-194.4745909109195
 20
-269.7512147676516
 11
-194.4745909109195
 21
-270.8200481009862
 72
     1
 10
-194.4745909109195
 20
-270.8200481009862
 11
-193.424933333012
 21
-270.8200481009862
 72
     1
 10
-193.424933333012
 20
-270.8200481009862
 11
-193.424933333012
 21
-269.7512147676516
 72
     1
 10
-193.424933333012
 20
-269.7512147676516
 11
-192.2321406308456
 21
-269.7512147676516
 72
     1
 10
-192.2321406308456
 20
-269.7512147676516
 11
-192.2321406308456
 21
-272.8050242914628
 97
       12
330
395
330
396
330
380
330
37F
330
37E
330
392
330
37D
330
393
330
394
330
37C
330
37B
330
37A
 75
     1
 76
     0
 52
45.0
 41
0.1
 77
     0
 78
     1
 53
45.0
 43
0.0
 44
0.0
 45
-0.0707106781186548
 46
0.0707106781186548
 79
     0
 98
        1
 10
0.0
 20
0.0
  0
HATCH
  5
429
330
71
100
AcDbEntity
  8
1
  6
Continuous
 62
     2
100
AcDbHatch
 10
0.0
 20
0.0
 30
0.0
210
0.0
220
0.0
230
1.0
  2
_USER
 70
     0
 71
     1
 91
        1
 92
        1
 93
       12
 72
     1
 10
-192.2321406308456
 20
-272.8050242914628
 11
-193.424933333012
 21
-272.8050242914628
 72
     1
 10
-193.424933333012
 20
-272.8050242914628
 11
-193.424933333012
 21
-271.670752182619
 72
     1
 10
-193.424933333012
 20
-271.670752182619
 11
-194.4745909109195
 21
-271.670752182619
 72
     1
 10
-194.4745909109195
 20
-271.670752182619
 11
-194.4745909109195
 21
-272.8050242914628
 72
     1
 10
-194.4745909109195
 20
-272.8050242914628
 11
-195.6673836130861
 21
-272.8050242914628
 72
     1
 10
-195.6673836130861
 20
-272.8050242914628
 11
-195.6673836130861
 21
-269.7512147676516
 72
     1
 10
-195.6673836130861
 20
-269.7512147676516
 11
-194.4745909109195
 21
-269.7512147676516
 72
     1
 10
-194.4745909109195
 20
-269.7512147676516
 11
-194.4745909109195
 21
-270.8200481009862
 72
     1
 10
-194.4745909109195
 20
-270.8200481009862
 11
-193.424933333012
 21
-270.8200481009862
 72
     1
 10
-193.424933333012
 20
-270.8200481009862
 11
-193.424933333012
 21
-269.7512147676516
 72
     1
 10
-193.424933333012
 20
-269.7512147676516
 11
-192.2321406308456
 21
-269.7512147676516
 72
     1
 10
-192.2321406308456
 20
-269.7512147676516
 11
-192.2321406308456
 21
-272.8050242914628
 97
       12
330
395
330
396
330
380
330
37F
330
37E
330
392
330
37D
330
393
330
394
330
37C
330
37B
330
37A
 75
     1
 76
     0
 52
45.0
 41
0.1
 77
     0
 78
     1
 53
45.0
 43
0.0
 44
0.0
 45
-0.0707106781186548
 46
0.0707106781186548
 79
     0
 98
        1
 10
0.0
 20
0.0
  0
HATCH
  5
42A
330
71
100
AcDbEntity
  8
1
  6
Continuous
 62
     2
100
AcDbHatch
 10
0.0
 20
0.0
 30
0.0
210
0.0
220
0.0
230
1.0
  2
_USER
 70
     0
 71
     1
 91
        1
 92
        1
 93
       10
 72
     1
 10
-189.9898412816573
 20
-274.4191807540311
 11
-191.2303456919102
 21
-273.110405243826
 72
     1
 10
-191.2303456919102
 20
-273.110405243826
 11
-192.4231383940778
 21
-273.110405243826
 72
     1
 10
-192.4231383940778
 20
-273.110405243826
 11
-192.4231383940778
 21
-276.1642147676371
 72
     1
 10
-192.4231383940778
 20
-276.1642147676371
 11
-191.2303456919102
 21
-276.1642147676371
 72
     1
 10
-191.2303456919102
 20
-276.1642147676371
 11
-191.2303456919102
 21
-274.8554392574325
 72
     1
 10
-191.2303456919102
 20
-274.8554392574325
 11
-189.9898412816573
 21
-276.1642147676371
 72
     1
 10
-189.9898412816573
 20
-276.1642147676371
 11
-188.7970485794909
 21
-276.1642147676371
 72
     1
 10
-188.7970485794909
 20
-276.1642147676371
 11
-188.7970485794909
 21
-273.110405243826
 72
     1
 10
-188.7970485794909
 20
-273.110405243826
 11
-189.9898412816573
 21
-273.110405243826
 72
     1
 10
-189.9898412816573
 20
-273.110405243826
 11
-189.9898412816573
 21
-274.4191807540311
 97
       10
330
3A3
330
373
330
372
330
375
330
39E
330
39F
330
374
330
3A0
330
3A1
330
3A2
 75
     1
 76
     0
 52
45.0
 41
0.1
 77
     0
 78
     1
 53
45.0
 43
0.0
 44
0.0
 45
-0.0707106781186548
 46
0.0707106781186548
 79
     0
 98
        1
 10
0.0
 20
0.0
  0
HATCH
  5
42B
330
71
100
AcDbEntity
  8
1
  6
Continuous
 62
     2
100
AcDbHatch
 10
0.0
 20
0.0
 30
0.0
210
0.0
220
0.0
230
1.0
  2
_USER
 70
     0
 71
     1
 91
        1
 92
        1
 93
       10
 72
     1
 10
-189.9898412816573
 20
-274.4191807540311
 11
-191.2303456919102
 21
-273.110405243826
 72
     1
 10
-191.2303456919102
 20
-273.110405243826
 11
-192.4231383940778
 21
-273.110405243826
 72
     1
 10
-192.4231383940778
 20
-273.110405243826
 11
-192.4231383940778
 21
-276.1642147676371
 72
     1
 10
-192.4231383940778
 20
-276.1642147676371
 11
-191.2303456919102
 21
-276.1642147676371
 72
     1
 10
-191.2303456919102
 20
-276.1642147676371
 11
-191.2303456919102
 21
-274.8554392574325
 72
     1
 10
-191.2303456919102
 20
-274.8554392574325
 11
-189.9898412816573
 21
-276.1642147676371
 72
     1
 10
-189.9898412816573
 20
-276.1642147676371
 11
-188.7970485794909
 21
-276.1642147676371
 72
     1
 10
-188.7970485794909
 20
-276.1642147676371
 11
-188.7970485794909
 21
-273.110405243826
 72
     1
 10
-188.7970485794909
 20
-273.110405243826
 11
-189.9898412816573
 21
-273.110405243826
 72
     1
 10
-189.9898412816573
 20
-273.110405243826
 11
-189.9898412816573
 21
-274.4191807540311
 97
       10
330
3A3
330
373
330
372
330
375
330
39E
330
39F
330
374
330
3A0
330
3A1
330
3A2
 75
     1
 76
     0
 52
45.0
 41
0.1
 77
     0
 78
     1
 53
45.0
 43
0.0
 44
0.0
 45
-0.0707106781186548
 46
0.0707106781186548
 79
     0
 98
        1
 10
0.0
 20
0.0
  0
HATCH
  5
42C
330
71
100
AcDbEntity
  8
1
  6
Continuous
 62
     2
100
AcDbHatch
 10
0.0
 20
0.0
 30
0.0
210
0.0
220
0.0
230
1.0
  2
_USER
 70
     0
 71
     1
 91
        1
 92
        1
 93
       10
 72
     1
 10
-184.7414024612376
 20
-271.0599902778567
 11
-185.9819068714916
 21
-269.7512147676516
 72
     1
 10
-185.9819068714916
 20
-269.7512147676516
 11
-187.1746995736581
 21
-269.7512147676516
 72
     1
 10
-187.1746995736581
 20
-269.7512147676516
 11
-187.1746995736581
 21
-272.8050242914628
 72
     1
 10
-187.1746995736581
 20
-272.8050242914628
 11
-185.9819068714916
 21
-272.8050242914628
 72
     1
 10
-185.9819068714916
 20
-272.8050242914628
 11
-185.9819068714916
 21
-271.4962487812581
 72
     1
 10
-185.9819068714916
 20
-271.4962487812581
 11
-184.7414024612376
 21
-272.8050242914628
 72
     1
 10
-184.7414024612376
 20
-272.8050242914628
 11
-183.548609759071
 21
-272.8050242914628
 72
     1
 10
-183.548609759071
 20
-272.8050242914628
 11
-183.548609759071
 21
-269.7512147676516
 72
     1
 10
-183.548609759071
 20
-269.7512147676516
 11
-184.7414024612376
 21
-269.7512147676516
 72
     1
 10
-184.7414024612376
 20
-269.7512147676516
 11
-184.7414024612376
 21
-271.0599902778567
 97
       10
330
3A8
330
370
330
36F
330
3A9
330
36E
330
3A4
330
3A5
330
3A6
330
3A7
330
371
 75
     1
 76
     0
 52
45.0
 41
0.1
 77
     0
 78
     1
 53
45.0
 43
0.0
 44
0.0
 45
-0.0707106781186548
 46
0.0707106781186548
 79
     0
 98
        1
 10
0.0
 20
0.0
  0
HATCH
  5
42D
330
71
100
AcDbEntity
  8
1
  6
Continuous
 62
     2
100
AcDbHatch
 10
0.0
 20
0.0
 30
0.0
210
0.0
220
0.0
230
1.0
  2
_USER
 70
     0
 71
     1
 91
        1
 92
        1
 93
       10
 72
     1
 10
-184.7414024612376
 20
-271.0599902778567
 11
-185.9819068714916
 21
-269.7512147676516
 72
     1
 10
-185.9819068714916
 20
-269.7512147676516
 11
-187.1746995736581
 21
-269.7512147676516
 72
     1
 10
-187.1746995736581
 20
-269.7512147676516
 11
-187.1746995736581
 21
-272.8050242914628
 72
     1
 10
-187.1746995736581
 20
-272.8050242914628
 11
-185.9819068714916
 21
-272.8050242914628
 72
     1
 10
-185.9819068714916
 20
-272.8050242914628
 11
-185.9819068714916
 21
-271.4962487812581
 72
     1
 10
-185.9819068714916
 20
-271.4962487812581
 11
-184.7414024612376
 21
-272.8050242914628
 72
     1
 10
-184.7414024612376
 20
-272.8050242914628
 11
-183.548609759071
 21
-272.8050242914628
 72
     1
 10
-183.548609759071
 20
-272.8050242914628
 11
-183.548609759071
 21
-269.7512147676516
 72
     1
 10
-183.548609759071
 20
-269.7512147676516
 11
-184.7414024612376
 21
-269.7512147676516
 72
     1
 10
-184.7414024612376
 20
-269.7512147676516
 11
-184.7414024612376
 21
-271.0599902778567
 97
       10
330
3A8
330
370
330
36F
330
3A9
330
36E
330
3A4
330
3A5
330
3A6
330
3A7
330
371
 75
     1
 76
     0
 52
45.0
 41
0.1
 77
     0
 78
     1
 53
45.0
 43
0.0
 44
0.0
 45
-0.0707106781186548
 46
0.0707106781186548
 79
     0
 98
        1
 10
0.0
 20
0.0
  0
HATCH
  5
42E
330
71
100
AcDbEntity
  8
1
  6
Continuous
 62
     2
100
AcDbHatch
 10
0.0
 20
0.0
 30
0.0
210
0.0
220
0.0
230
1.0
  2
_USER
 70
     0
 71
     1
 91
        1
 92
        1
 93
        8
 72
     1
 10
-185.8389226781171
 20
-273.110405243826
 11
-188.6539134552307
 21
-273.110405243826
 72
     1
 10
-188.6539134552307
 20
-273.110405243826
 11
-188.6539134552307
 21
-273.8956705499496
 72
     1
 10
-188.6539134552307
 20
-273.8956705499496
 11
-187.8428144177561
 21
-273.8956705499496
 72
     1
 10
-187.8428144177561
 20
-273.8956705499496
 11
-187.8428144177561
 21
-276.1642147676371
 72
     1
 10
-187.8428144177561
 20
-276.1642147676371
 11
-186.6500217155896
 21
-276.1642147676371
 72
     1
 10
-186.6500217155896
 20
-276.1642147676371
 11
-186.6500217155896
 21
-273.8956705499496
 72
     1
 10
-186.6500217155896
 20
-273.8956705499496
 11
-185.8389226781171
 21
-273.8956705499496
 72
     1
 10
-185.8389226781171
 20
-273.8956705499496
 11
-185.8389226781171
 21
-273.110405243826
 97
        8
330
36A
330
3AA
330
369
330
3AB
330
3AC
330
36D
330
36C
330
36B
 75
     1
 76
     0
 52
45.0
 41
0.1
 77
     0
 78
     1
 53
45.0
 43
0.0
 44
0.0
 45
-0.0707106781186548
 46
0.0707106781186548
 79
     0
 98
        1
 10
0.0
 20
0.0
  0
HATCH
  5
42F
330
71
100
AcDbEntity
  8
1
  6
Continuous
 62
     2
100
AcDbHatch
 10
0.0
 20
0.0
 30
0.0
210
0.0
220
0.0
230
1.0
  2
_USER
 70
     0
 71
     1
 91
        1
 92
        1
 93
        8
 72
     1
 10
-185.8389226781171
 20
-273.110405243826
 11
-188.6539134552307
 21
-273.110405243826
 72
     1
 10
-188.6539134552307
 20
-273.110405243826
 11
-188.6539134552307
 21
-273.8956705499496
 72
     1
 10
-188.6539134552307
 20
-273.8956705499496
 11
-187.8428144177561
 21
-273.8956705499496
 72
     1
 10
-187.8428144177561
 20
-273.8956705499496
 11
-187.8428144177561
 21
-276.1642147676371
 72
     1
 10
-187.8428144177561
 20
-276.1642147676371
 11
-186.6500217155896
 21
-276.1642147676371
 72
     1
 10
-186.6500217155896
 20
-276.1642147676371
 11
-186.6500217155896
 21
-273.8956705499496
 72
     1
 10
-186.6500217155896
 20
-273.8956705499496
 11
-185.8389226781171
 21
-273.8956705499496
 72
     1
 10
-185.8389226781171
 20
-273.8956705499496
 11
-185.8389226781171
 21
-273.110405243826
 97
        8
330
36A
330
3AA
330
369
330
3AB
330
3AC
330
36D
330
36C
330
36B
 75
     1
 76
     0
 52
45.0
 41
0.1
 77
     0
 78
     1
 53
45.0
 43
0.0
 44
0.0
 45
-0.0707106781186548
 46
0.0707106781186548
 79
     0
 98
        1
 10
0.0
 20
0.0
  0
HATCH
  5
430
330
71
100
AcDbEntity
  8
1
  6
Continuous
 62
     2
100
AcDbHatch
 10
0.0
 20
0.0
 30
0.0
210
0.0
220
0.0
230
1.0
  2
_USER
 70
     0
 71
     1
 91
        2
 92
        1
 93
        8
 72
     1
 10
-183.7004952221701
 20
-276.1642147676371
 11
-183.9119752756459
 21
-275.6232542234192
 72
     1
 10
-183.9119752756459
 20
-275.6232542234192
 11
-185.0444168523197
 21
-275.6232542234192
 72
     1
 10
-185.0444168523197
 20
-275.6232542234192
 11
-185.2558969057955
 21
-276.1642147676371
 72
     1
 10
-185.2558969057955
 20
-276.1642147676371
 11
-186.4964013160485
 21
-276.1642147676371
 72
     1
 10
-186.4964013160485
 20
-276.1642147676371
 11
-185.0984482691092
 21
-273.110405243826
 72
     1
 10
-185.0984482691092
 20
-273.110405243826
 11
-183.8579438588565
 21
-273.110405243826
 72
     1
 10
-183.8579438588565
 20
-273.110405243826
 11
-182.4599908119162
 21
-276.1642147676371
 72
     1
 10
-182.4599908119162
 20
-276.1642147676371
 11
-183.7004952221701
 21
-276.1642147676371
 97
        8
330
3AE
330
3AF
330
366
330
3B0
330
365
330
368
330
3AD
330
367
 92
       16
 93
        3
 72
     1
 10
-184.7783613011747
 20
-274.9426909581126
 11
-184.4781960639823
 21
-274.1748759921259
 72
     1
 10
-184.4781960639823
 20
-274.1748759921259
 11
-184.1780308267922
 21
-274.9426909581126
 72
     1
 10
-184.1780308267922
 20
-274.9426909581126
 11
-184.7783613011747
 21
-274.9426909581126
 97
        3
330
364
330
3B2
330
3B1
 75
     1
 76
     0
 52
45.0
 41
0.1
 77
     0
 78
     1
 53
45.0
 43
0.0
 44
0.0
 45
-0.0707106781186548
 46
0.0707106781186548
 79
     0
 98
        1
 10
0.0
 20
0.0
  0
HATCH
  5
431
330
71
100
AcDbEntity
  8
1
  6
Continuous
 62
     2
100
AcDbHatch
 10
0.0
 20
0.0
 30
0.0
210
0.0
220
0.0
230
1.0
  2
_USER
 70
     0
 71
     1
 91
        2
 92
        1
 93
        8
 72
     1
 10
-183.7004952221701
 20
-276.1642147676371
 11
-183.9119752756459
 21
-275.6232542234192
 72
     1
 10
-183.9119752756459
 20
-275.6232542234192
 11
-185.0444168523197
 21
-275.6232542234192
 72
     1
 10
-185.0444168523197
 20
-275.6232542234192
 11
-185.2558969057955
 21
-276.1642147676371
 72
     1
 10
-185.2558969057955
 20
-276.1642147676371
 11
-186.4964013160485
 21
-276.1642147676371
 72
     1
 10
-186.4964013160485
 20
-276.1642147676371
 11
-185.0984482691092
 21
-273.110405243826
 72
     1
 10
-185.0984482691092
 20
-273.110405243826
 11
-183.8579438588565
 21
-273.110405243826
 72
     1
 10
-183.8579438588565
 20
-273.110405243826
 11
-182.4599908119162
 21
-276.1642147676371
 72
     1
 10
-182.4599908119162
 20
-276.1642147676371
 11
-183.7004952221701
 21
-276.1642147676371
 97
        8
330
3AE
330
3AF
330
366
330
3B0
330
365
330
368
330
3AD
330
367
 92
       16
 93
        3
 72
     1
 10
-184.7783613011747
 20
-274.9426909581126
 11
-184.4781960639823
 21
-274.1748759921259
 72
     1
 10
-184.4781960639823
 20
-274.1748759921259
 11
-184.1780308267922
 21
-274.9426909581126
 72
     1
 10
-184.1780308267922
 20
-274.9426909581126
 11
-184.7783613011747
 21
-274.9426909581126
 97
        3
330
364
330
3B2
330
3B1
 75
     1
 76
     0
 52
45.0
 41
0.1
 77
     0
 78
     1
 53
45.0
 43
0.0
 44
0.0
 45
-0.0707106781186548
 46
0.0707106781186548
 79
     0
 98
        1
 10
0.0
 20
0.0
  0
HATCH
  5
432
330
71
100
AcDbEntity
  8
1
  6
Continuous
 62
     2
100
AcDbHatch
 10
0.0
 20
0.0
 30
0.0
210
0.0
220
0.0
230
1.0
  2
_USER
 70
     0
 71
     1
 91
        1
 92
        1
 93
        4
 72
     1
 10
-182.0695468083842
 20
-272.8050242914628
 11
-183.3100512186371
 21
-272.8050242914628
 72
     1
 10
-183.3100512186371
 20
-272.8050242914628
 11
-183.3100512186371
 21
-269.7512147676516
 72
     1
 10
-183.3100512186371
 20
-269.7512147676516
 11
-182.0695468083842
 21
-269.7512147676516
 72
     1
 10
-182.0695468083842
 20
-269.7512147676516
 11
-182.0695468083842
 21
-272.8050242914628
 97
        4
330
361
330
363
330
3B3
330
362
 75
     1
 76
     0
 52
45.0
 41
0.1
 77
     0
 78
     1
 53
45.0
 43
0.0
 44
0.0
 45
-0.0707106781186548
 46
0.0707106781186548
 79
     0
 98
        1
 10
0.0
 20
0.0
  0
HATCH
  5
433
330
71
100
AcDbEntity
  8
1
  6
Continuous
 62
     2
100
AcDbHatch
 10
0.0
 20
0.0
 30
0.0
210
0.0
220
0.0
230
1.0
  2
_USER
 70
     0
 71
     1
 91
        1
 92
        1
 93
        4
 72
     1
 10
-182.0695468083842
 20
-272.8050242914628
 11
-183.3100512186371
 21
-272.8050242914628
 72
     1
 10
-183.3100512186371
 20
-272.8050242914628
 11
-183.3100512186371
 21
-269.7512147676516
 72
     1
 10
-183.3100512186371
 20
-269.7512147676516
 11
-182.0695468083842
 21
-269.7512147676516
 72
     1
 10
-182.0695468083842
 20
-269.7512147676516
 11
-182.0695468083842
 21
-272.8050242914628
 97
        4
330
361
330
363
330
3B3
330
362
 75
     1
 76
     0
 52
45.0
 41
0.1
 77
     0
 78
     1
 53
45.0
 43
0.0
 44
0.0
 45
-0.0707106781186548
 46
0.0707106781186548
 79
     0
 98
        1
 10
0.0
 20
0.0
  0
HATCH
  5
434
330
71
100
AcDbEntity
  8
1
  6
Continuous
 62
     2
100
AcDbHatch
 10
0.0
 20
0.0
 30
0.0
210
0.0
220
0.0
230
1.0
  2
_USER
 70
     0
 71
     1
 91
        1
 92
        1
 93
       12
 72
     1
 10
-177.8470606427134
 20
-269.7512147676516
 11
-179.1495902734799
 21
-271.2241652976878
 72
     1
 10
-179.1495902734799
 20
-271.2241652976878
 11
-177.7516372265396
 21
-272.8050242914628
 72
     1
 10
-177.7516372265396
 20
-272.8050242914628
 11
-179.1543614442879
 21
-272.8050242914628
 72
     1
 10
-179.1543614442879
 20
-272.8050242914628
 11
-179.8509523823534
 21
-272.017292506169
 72
     1
 10
-179.8509523823534
 20
-272.017292506169
 11
-180.5475433204191
 21
-272.8050242914628
 72
     1
 10
-180.5475433204191
 20
-272.8050242914628
 11
-181.9502675381673
 21
-272.8050242914628
 72
     1
 10
-181.9502675381673
 20
-272.8050242914628
 11
-180.552314491227
 21
-271.2241652976878
 72
     1
 10
-180.552314491227
 20
-271.2241652976878
 11
-181.8548441219945
 21
-269.7512147676516
 72
     1
 10
-181.8548441219945
 20
-269.7512147676516
 11
-180.4521199042452
 21
-269.7512147676516
 72
     1
 10
-180.4521199042452
 20
-269.7512147676516
 11
-179.8509523823534
 21
-270.4310380892071
 72
     1
 10
-179.8509523823534
 20
-270.4310380892071
 11
-179.2497848604606
 21
-269.7512147676516
 72
     1
 10
-179.2497848604606
 20
-269.7512147676516
 11
-177.8470606427134
 21
-269.7512147676516
 97
       12
330
35C
330
35B
330
35A
330
3B7
330
3B8
330
3B4
330
3B5
330
360
330
35F
330
35E
330
35D
330
3B6
 75
     1
 76
     0
 52
45.0
 41
0.1
 77
     0
 78
     1
 53
45.0
 43
0.0
 44
0.0
 45
-0.0707106781186548
 46
0.0707106781186548
 79
     0
 98
        1
 10
0.0
 20
0.0
  0
HATCH
  5
435
330
71
100
AcDbEntity
  8
1
  6
Continuous
 62
     2
100
AcDbHatch
 10
0.0
 20
0.0
 30
0.0
210
0.0
220
0.0
230
1.0
  2
_USER
 70
     0
 71
     1
 91
        1
 92
        1
 93
       12
 72
     1
 10
-177.8470606427134
 20
-269.7512147676516
 11
-179.1495902734799
 21
-271.2241652976878
 72
     1
 10
-179.1495902734799
 20
-271.2241652976878
 11
-177.7516372265396
 21
-272.8050242914628
 72
     1
 10
-177.7516372265396
 20
-272.8050242914628
 11
-179.1543614442879
 21
-272.8050242914628
 72
     1
 10
-179.1543614442879
 20
-272.8050242914628
 11
-179.8509523823534
 21
-272.017292506169
 72
     1
 10
-179.8509523823534
 20
-272.017292506169
 11
-180.5475433204191
 21
-272.8050242914628
 72
     1
 10
-180.5475433204191
 20
-272.8050242914628
 11
-181.9502675381673
 21
-272.8050242914628
 72
     1
 10
-181.9502675381673
 20
-272.8050242914628
 11
-180.552314491227
 21
-271.2241652976878
 72
     1
 10
-180.552314491227
 20
-271.2241652976878
 11
-181.8548441219945
 21
-269.7512147676516
 72
     1
 10
-181.8548441219945
 20
-269.7512147676516
 11
-180.4521199042452
 21
-269.7512147676516
 72
     1
 10
-180.4521199042452
 20
-269.7512147676516
 11
-179.8509523823534
 21
-270.4310380892071
 72
     1
 10
-179.8509523823534
 20
-270.4310380892071
 11
-179.2497848604606
 21
-269.7512147676516
 72
     1
 10
-179.2497848604606
 20
-269.7512147676516
 11
-177.8470606427134
 21
-269.7512147676516
 97
       12
330
35C
330
35B
330
35A
330
3B7
330
3B8
330
3B4
330
3B5
330
360
330
35F
330
35E
330
35D
330
3B6
 75
     1
 76
     0
 52
45.0
 41
0.1
 77
     0
 78
     1
 53
45.0
 43
0.0
 44
0.0
 45
-0.0707106781186548
 46
0.0707106781186548
 79
     0
 98
        1
 10
0.0
 20
0.0
  0
HATCH
  5
436
330
71
100
AcDbEntity
  8
1
  6
Continuous
 62
     2
100
AcDbHatch
 10
0.0
 20
0.0
 30
0.0
210
0.0
220
0.0
230
1.0
  2
_USER
 70
     0
 71
     1
 91
        2
 92
        1
 93
        6
 72
     1
 10
-196.8647960568594
 20
-271.861946050319
 11
-197.6235636446397
 21
-271.861946050319
 72
     1
 10
-197.6235636446397
 20
-271.861946050319
 11
-197.6235636446397
 21
-272.8050242914628
 72
     1
 10
-197.6235636446397
 20
-272.8050242914628
 11
-198.8640680548938
 21
-272.8050242914628
 72
     1
 10
-198.8640680548938
 20
-272.8050242914628
 11
-198.8640680548938
 21
-269.7512147676516
 72
     1
 10
-198.8640680548938
 20
-269.7512147676516
 11
-196.8647960568594
 21
-269.7512147676516
 72
     2
 10
-196.8647960568594
 20
-270.8065804089853
 40
1.055365641333651
 50
270.0
 51
450.0
 73
     0
 97
        6
330
384
330
383
330
390
330
38F
330
385
330
3D5
 92
       16
 93
        4
 72
     2
 10
-197.3062685830978
 20
-270.7671844377628
 40
0.3528638246710898
 50
270.0
 51
450.0
 73
     1
 72
     1
 10
-197.3062685830978
 20
-270.4143206130917
 11
-197.6235636446397
 21
-270.4143206130917
 72
     1
 10
-197.6235636446397
 20
-270.4143206130917
 11
-197.6235636446397
 21
-271.1200482624339
 72
     1
 10
-197.6235636446397
 20
-271.1200482624339
 11
-197.3062685830978
 21
-271.1200482624339
 97
        4
330
3E9
330
381
330
391
330
382
 75
     1
 76
     0
 52
45.0
 41
0.1
 77
     0
 78
     1
 53
45.0
 43
0.0
 44
0.0
 45
-0.0707106781186548
 46
0.0707106781186548
 79
     0
 98
        1
 10
0.0
 20
0.0
  0
HATCH
  5
437
330
71
100
AcDbEntity
  8
1
  6
Continuous
 62
     2
100
AcDbHatch
 10
0.0
 20
0.0
 30
0.0
210
0.0
220
0.0
230
1.0
  2
_USER
 70
     0
 71
     1
 91
        2
 92
        1
 93
        6
 72
     1
 10
-196.8647960568594
 20
-271.861946050319
 11
-197.6235636446397
 21
-271.861946050319
 72
     1
 10
-197.6235636446397
 20
-271.861946050319
 11
-197.6235636446397
 21
-272.8050242914628
 72
     1
 10
-197.6235636446397
 20
-272.8050242914628
 11
-198.8640680548938
 21
-272.8050242914628
 72
     1
 10
-198.8640680548938
 20
-272.8050242914628
 11
-198.8640680548938
 21
-269.7512147676516
 72
     1
 10
-198.8640680548938
 20
-269.7512147676516
 11
-196.8647960568594
 21
-269.7512147676516
 72
     2
 10
-196.8647960568594
 20
-270.8065804089853
 40
1.055365641333651
 50
270.0
 51
450.0
 73
     0
 97
        6
330
384
330
383
330
390
330
38F
330
385
330
3D5
 92
       16
 93
        4
 72
     2
 10
-197.3062685830978
 20
-270.7671844377628
 40
0.3528638246710898
 50
270.0
 51
450.0
 73
     1
 72
     1
 10
-197.3062685830978
 20
-270.4143206130917
 11
-197.6235636446397
 21
-270.4143206130917
 72
     1
 10
-197.6235636446397
 20
-270.4143206130917
 11
-197.6235636446397
 21
-271.1200482624339
 72
     1
 10
-197.6235636446397
 20
-271.1200482624339
 11
-197.3062685830978
 21
-271.1200482624339
 97
        4
330
3E9
330
381
330
391
330
382
 75
     1
 76
     0
 52
45.0
 41
0.1
 77
     0
 78
     1
 53
45.0
 43
0.0
 44
0.0
 45
-0.0707106781186548
 46
0.0707106781186548
 79
     0
 98
        1
 10
0.0
 20
0.0
  0
HATCH
  5
438
330
71
100
AcDbEntity
  8
1
  6
Continuous
 62
     2
100
AcDbHatch
 10
0.0
 20
0.0
 30
0.0
210
0.0
220
0.0
230
1.0
  2
_USER
 70
     0
 71
     1
 91
        2
 92
        1
 93
        4
 72
     2
 10
-194.3082533085003
 20
-275.1758850160346
 40
2.065479772208593
 50
62.45185182430674
 51
117.5481481756667
 73
     1
 72
     2
 10
-194.5891932003336
 20
-274.6373100057318
 40
1.458034083651528
 50
117.5481481756629
 51
242.451851824336
 73
     1
 72
     2
 10
-194.3082533085003
 20
-274.0987349954285
 40
2.065479772208497
 50
242.4518518243391
 51
297.5481481756875
 73
     1
 72
     2
 10
-194.027313416667
 20
-274.6373100057318
 40
1.458034083651977
 50
297.5481481757016
 51
422.4518518242994
 73
     1
 97
        4
330
3E1
330
3E0
330
3E2
330
3DF
 92
       16
 93
        4
 72
     2
 10
-194.5079933448467
 20
-274.6373100057318
 40
0.7717997786796245
 50
321.8795802028483
 51
398.120419797155
 73
     1
 72
     2
 10
-194.3082533085003
 20
-274.4805788276113
 40
0.5179085730132998
 50
38.12041979714704
 51
141.8795802028588
 73
     1
 72
     2
 10
-194.1085132721542
 20
-274.6373100057318
 40
0.7717997786794808
 50
141.8795802028346
 51
218.120419797162
 73
     1
 72
     2
 10
-194.3082533085003
 20
-274.7940411838518
 40
0.5179085730136828
 50
218.1204197971857
 51
321.8795802028085
 73
     1
 97
        4
330
3FD
330
3FA
330
3FB
330
3FC
 75
     1
 76
     0
 52
45.0
 41
0.1
 77
     0
 78
     1
 53
45.0
 43
0.0
 44
0.0
 45
-0.0707106781186548
 46
0.0707106781186548
 79
     0
 98
        1
 10
0.0
 20
0.0
  0
HATCH
  5
439
330
71
100
AcDbEntity
  8
1
  6
Continuous
 62
     2
100
AcDbHatch
 10
0.0
 20
0.0
 30
0.0
210
0.0
220
0.0
230
1.0
  2
_USER
 70
     0
 71
     1
 91
        2
 92
        1
 93
        4
 72
     2
 10
-194.3082533085003
 20
-275.1758850160346
 40
2.065479772208593
 50
62.45185182430674
 51
117.5481481756667
 73
     1
 72
     2
 10
-194.5891932003336
 20
-274.6373100057318
 40
1.458034083651528
 50
117.5481481756629
 51
242.451851824336
 73
     1
 72
     2
 10
-194.3082533085003
 20
-274.0987349954285
 40
2.065479772208497
 50
242.4518518243391
 51
297.5481481756875
 73
     1
 72
     2
 10
-194.027313416667
 20
-274.6373100057318
 40
1.458034083651977
 50
297.5481481757016
 51
422.4518518242994
 73
     1
 97
        4
330
3E1
330
3E0
330
3E2
330
3DF
 92
       16
 93
        4
 72
     2
 10
-194.5079933448467
 20
-274.6373100057318
 40
0.7717997786796245
 50
321.8795802028483
 51
398.120419797155
 73
     1
 72
     2
 10
-194.3082533085003
 20
-274.4805788276113
 40
0.5179085730132998
 50
38.12041979714704
 51
141.8795802028588
 73
     1
 72
     2
 10
-194.1085132721542
 20
-274.6373100057318
 40
0.7717997786794808
 50
141.8795802028346
 51
218.120419797162
 73
     1
 72
     2
 10
-194.3082533085003
 20
-274.7940411838518
 40
0.5179085730136828
 50
218.1204197971857
 51
321.8795802028085
 73
     1
 97
        4
330
3FD
330
3FA
330
3FB
330
3FC
 75
     1
 76
     0
 52
45.0
 41
0.1
 77
     0
 78
     1
 53
45.0
 43
0.0
 44
0.0
 45
-0.0707106781186548
 46
0.0707106781186548
 79
     0
 98
        1
 10
0.0
 20
0.0
  0
HATCH
  5
43A
330
71
100
AcDbEntity
  8
1
  6
Continuous
 62
     2
100
AcDbHatch
 10
0.0
 20
0.0
 30
0.0
210
0.0
220
0.0
230
1.0
  2
_USER
 70
     0
 71
     1
 91
        2
 92
        1
 93
       12
 72
     1
 10
-187.413258114091
 20
-270.4492283730946
 11
-188.7491859405187
 21
-270.4492283730946
 72
     1
 10
-188.7491859405187
 20
-270.4492283730946
 11
-188.7491859405187
 21
-270.9291127268363
 72
     1
 10
-188.7491859405187
 20
-270.9291127268363
 11
-187.413258114091
 21
-270.9291127268363
 72
     1
 10
-187.413258114091
 20
-270.9291127268363
 11
-187.413258114091
 21
-271.6271263322786
 72
     1
 10
-187.413258114091
 20
-271.6271263322786
 11
-188.7491859405187
 21
-271.6271263322786
 72
     1
 10
-188.7491859405187
 20
-271.6271263322786
 11
-188.7491859405187
 21
-272.1070106860203
 72
     1
 10
-188.7491859405187
 20
-272.1070106860203
 11
-187.413258114091
 21
-272.1070106860203
 72
     1
 10
-187.413258114091
 20
-272.1070106860203
 11
-187.413258114091
 21
-272.8050242914628
 72
     1
 10
-187.413258114091
 20
-272.8050242914628
 11
-190.563577837872
 21
-272.8050242914628
 72
     2
 10
-190.563577837872
 20
-271.2781195295574
 40
1.526904761905769
 50
90.0
 51
270.0
 73
     0
 72
     1
 10
-190.563577837872
 20
-269.7512147676516
 11
-187.413258114091
 21
-269.7512147676516
 72
     1
 10
-187.413258114091
 20
-269.7512147676516
 11
-187.413258114091
 21
-270.4492283730946
 97
       12
330
398
330
3EA
330
399
330
39A
330
39B
330
39C
330
379
330
378
330
377
330
376
330
39D
330
397
 92
       16
 93
        4
 72
     2
 10
-190.3473058277068
 20
-271.121388351437
 40
0.5179085730135266
 50
38.12041979714334
 51
141.8795802028489
 73
     1
 72
     2
 10
-190.1475657913605
 20
-271.2781195295574
 40
0.7717997786796023
 50
141.8795802028471
 51
218.1204197971629
 73
     1
 72
     2
 10
-190.3473058277068
 20
-271.4348507076779
 40
0.5179085730134372
 50
218.1204197971511
 51
321.8795802028566
 73
     1
 72
     2
 10
-190.547045864053
 20
-271.2781195295574
 40
0.7717997786797075
 50
321.8795802028371
 51
398.1204197971529
 73
     1
 97
        4
330
3E4
330
3E3
330
3DE
330
3DD
 75
     1
 76
     0
 52
45.0
 41
0.1
 77
     0
 78
     1
 53
45.0
 43
0.0
 44
0.0
 45
-0.0707106781186548
 46
0.0707106781186548
 79
     0
 98
        1
 10
0.0
 20
0.0
  0
HATCH
  5
43B
330
71
100
AcDbEntity
  8
1
  6
Continuous
 62
     2
100
AcDbHatch
 10
0.0
 20
0.0
 30
0.0
210
0.0
220
0.0
230
1.0
  2
_USER
 70
     0
 71
     1
 91
        2
 92
        1
 93
       12
 72
     1
 10
-187.413258114091
 20
-270.4492283730946
 11
-188.7491859405187
 21
-270.4492283730946
 72
     1
 10
-188.7491859405187
 20
-270.4492283730946
 11
-188.7491859405187
 21
-270.9291127268363
 72
     1
 10
-188.7491859405187
 20
-270.9291127268363
 11
-187.413258114091
 21
-270.9291127268363
 72
     1
 10
-187.413258114091
 20
-270.9291127268363
 11
-187.413258114091
 21
-271.6271263322786
 72
     1
 10
-187.413258114091
 20
-271.6271263322786
 11
-188.7491859405187
 21
-271.6271263322786
 72
     1
 10
-188.7491859405187
 20
-271.6271263322786
 11
-188.7491859405187
 21
-272.1070106860203
 72
     1
 10
-188.7491859405187
 20
-272.1070106860203
 11
-187.413258114091
 21
-272.1070106860203
 72
     1
 10
-187.413258114091
 20
-272.1070106860203
 11
-187.413258114091
 21
-272.8050242914628
 72
     1
 10
-187.413258114091
 20
-272.8050242914628
 11
-190.563577837872
 21
-272.8050242914628
 72
     2
 10
-190.563577837872
 20
-271.2781195295574
 40
1.526904761905769
 50
90.0
 51
270.0
 73
     0
 72
     1
 10
-190.563577837872
 20
-269.7512147676516
 11
-187.413258114091
 21
-269.7512147676516
 72
     1
 10
-187.413258114091
 20
-269.7512147676516
 11
-187.413258114091
 21
-270.4492283730946
 97
       12
330
398
330
3EA
330
399
330
39A
330
39B
330
39C
330
379
330
378
330
377
330
376
330
39D
330
397
 92
       16
 93
        4
 72
     2
 10
-190.3473058277068
 20
-271.121388351437
 40
0.5179085730135266
 50
38.12041979714334
 51
141.8795802028489
 73
     1
 72
     2
 10
-190.1475657913605
 20
-271.2781195295574
 40
0.7717997786796023
 50
141.8795802028471
 51
218.1204197971629
 73
     1
 72
     2
 10
-190.3473058277068
 20
-271.4348507076779
 40
0.5179085730134372
 50
218.1204197971511
 51
321.8795802028566
 73
     1
 72
     2
 10
-190.547045864053
 20
-271.2781195295574
 40
0.7717997786797075
 50
321.8795802028371
 51
398.1204197971529
 73
     1
 97
        4
330
3E4
330
3E3
330
3DE
330
3DD
 75
     1
 76
     0
 52
45.0
 41
0.1
 77
     0
 78
     1
 53
45.0
 43
0.0
 44
0.0
 45
-0.0707106781186548
 46
0.0707106781186548
 79
     0
 98
        1
 10
0.0
 20
0.0
  0
HATCH
  5
43C
330
71
100
AcDbEntity
  8
1
  6
Continuous
 62
     2
100
AcDbHatch
 10
0.0
 20
0.0
 30
0.0
210
0.0
220
0.0
230
1.0
  2
_USER
 70
     0
 71
     1
 91
        4
 92
        1
 93
        8
 72
     1
 10
-199.3411851357606
 20
-270.1754593830536
 11
-199.3411851357606
 21
-275.7399701522538
 72
     2
 10
-199.7654297511445
 20
-275.7399701522538
 40
0.4242446153832589
 50
0.0
 51
90.0
 73
     0
 72
     1
 10
-199.7654297511445
 20
-276.1642147676371
 11
-205.2387418418613
 21
-276.1642147676371
 72
     2
 10
-205.2387418418613
 20
-275.7399701522538
 40
0.4242446153828041
 50
90.0
 51
180.0
 73
     0
 72
     1
 10
-205.6629864572441
 20
-275.7399701522538
 11
-205.6629864572441
 21
-270.1754593830536
 72
     2
 10
-205.2387418418613
 20
-270.1754593830536
 40
0.4242446153837705
 50
180.0
 51
270.0
 73
     0
 72
     1
 10
-205.2387418418613
 20
-269.7512147676698
 11
-199.7654297511445
 21
-269.7512147676698
 72
     2
 10
-199.7654297511445
 20
-270.1754593830536
 40
0.4242446153838841
 50
270.0
 51
360.0
 73
     0
 97
        8
330
38C
330
3DA
330
38D
330
3E5
330
38A
330
3DC
330
38B
330
3DB
 92
       16
 93
        1
 72
     2
 10
-202.6191561913438
 20
-272.4943416114091
 40
0.470978932778479
 50
0.0
 51
360.0
 73
     1
 97
        1
330
400
 92
       16
 93
        8
 72
     2
 10
-202.0692984785831
 20
-273.6034832113775
 40
0.3157169230765328
 50
115.3740086783519
 51
180.0
 73
     1
 72
     1
 10
-202.3850154016599
 20
-273.6034832113775
 11
-202.3850154016599
 21
-274.1853346180726
 72
     2
 10
-202.0692984785831
 20
-274.1853346180726
 40
0.315716923076792
 50
180.0
 51
269.8110329574542
 73
     1
 72
     2
 10
-202.0636823432731
 20
-272.4824996705036
 40
2.018561131933266
 50
269.8110329575858
 51
450.1889670424142
 73
     1
 72
     2
 10
-202.0692984785831
 20
-270.7796647229345
 40
0.3157169230760711
 50
90.18896704254594
 51
180.0
 73
     1
 72
     1
 10
-202.3850154016599
 20
-270.7796647229345
 11
-202.3850154016599
 21
-271.3852000114413
 72
     2
 10
-202.0692984785831
 20
-271.3852000114413
 40
0.315716923076792
 50
180.0
 51
244.6259913216437
 73
     1
 72
     2
 10
-202.595341176671
 20
-272.4943416114091
 40
0.9118481501444968
 50
295.3740086781942
 51
424.6259913218228
 73
     0
 97
        8
330
3F2
330
353
330
3EF
330
3F0
330
3CE
330
352
330
3F1
330
3CD
 92
       16
 93
       12
 72
     2
 10
-204.6448471651148
 20
-275.1359422890035
 40
0.3157169230756836
 50
180.0
 51
270.0
 73
     1
 72
     1
 10
-204.6448471651148
 20
-275.4516592120802
 11
-203.1690139041052
 21
-275.4516592120802
 72
     2
 10
-203.1690139041052
 20
-275.1359422890035
 40
0.3157169230767067
 50
270.0
 51
360.0
 73
     1
 72
     1
 10
-202.8532969810286
 20
-275.1359422890035
 11
-202.8532969810286
 21
-273.6051713574719
 72
     2
 10
-203.1690139041052
 20
-273.6051713574719
 40
0.3157169230766215
 50
0.0
 51
64.80558935145561
 73
     1
 72
     2
 10
-202.6464294565302
 20
-272.4943416114091
 40
0.9118975235576917
 50
115.1944106485122
 51
244.805589351474
 73
     0
 72
     2
 10
-203.1690139041052
 20
-271.3835118653469
 40
0.3157169230760295
 50
295.1944106485531
 51
360.0
 73
     1
 72
     1
 10
-202.8532969810286
 20
-271.3835118653469
 11
-202.8532969810286
 21
-270.7794872462864
 72
     2
 10
-203.1690139041052
 20
-270.7794872462864
 40
0.3157169230766215
 50
0.0
 51
90.0
 73
     1
 72
     1
 10
-203.1690139041052
 20
-270.4637703232102
 11
-204.6448471651148
 21
-270.4637703232102
 72
     2
 10
-204.6448471651148
 20
-270.7794872462864
 40
0.3157169230761951
 50
90.0
 51
180.0
 73
     1
 72
     1
 10
-204.9605640881905
 20
-270.7794872462864
 11
-204.9605640881905
 21
-275.1359422890035
 97
       12
330
3D6
330
38E
330
3D9
330
389
330
3E6
330
3E7
330
3D8
330
388
330
3D7
330
387
330
3E8
330
386
 75
     1
 76
     0
 52
45.0
 41
0.1
 77
     0
 78
     1
 53
45.0
 43
0.0
 44
0.0
 45
-0.0707106781186548
 46
0.0707106781186548
 79
     0
 98
        1
 10
0.0
 20
0.0
  0
HATCH
  5
43D
330
71
100
AcDbEntity
  8
1
  6
Continuous
 62
     2
100
AcDbHatch
 10
0.0
 20
0.0
 30
0.0
210
0.0
220
0.0
230
1.0
  2
_USER
 70
     0
 71
     1
 91
        4
 92
        1
 93
        8
 72
     1
 10
-199.3411851357606
 20
-270.1754593830536
 11
-199.3411851357606
 21
-275.7399701522538
 72
     2
 10
-199.7654297511445
 20
-275.7399701522538
 40
0.4242446153832589
 50
0.0
 51
90.0
 73
     0
 72
     1
 10
-199.7654297511445
 20
-276.1642147676371
 11
-205.2387418418613
 21
-276.1642147676371
 72
     2
 10
-205.2387418418613
 20
-275.7399701522538
 40
0.4242446153828041
 50
90.0
 51
180.0
 73
     0
 72
     1
 10
-205.6629864572441
 20
-275.7399701522538
 11
-205.6629864572441
 21
-270.1754593830536
 72
     2
 10
-205.2387418418613
 20
-270.1754593830536
 40
0.4242446153837705
 50
180.0
 51
270.0
 73
     0
 72
     1
 10
-205.2387418418613
 20
-269.7512147676698
 11
-199.7654297511445
 21
-269.7512147676698
 72
     2
 10
-199.7654297511445
 20
-270.1754593830536
 40
0.4242446153838841
 50
270.0
 51
360.0
 73
     0
 97
        8
330
38C
330
3DA
330
38D
330
3E5
330
38A
330
3DC
330
38B
330
3DB
 92
       16
 93
        1
 72
     2
 10
-202.6191561913438
 20
-272.4943416114091
 40
0.470978932778479
 50
0.0
 51
360.0
 73
     1
 97
        1
330
400
 92
       16
 93
        8
 72
     2
 10
-202.0692984785831
 20
-273.6034832113775
 40
0.3157169230765328
 50
115.3740086783519
 51
180.0
 73
     1
 72
     1
 10
-202.3850154016599
 20
-273.6034832113775
 11
-202.3850154016599
 21
-274.1853346180726
 72
     2
 10
-202.0692984785831
 20
-274.1853346180726
 40
0.315716923076792
 50
180.0
 51
269.8110329574542
 73
     1
 72
     2
 10
-202.0636823432731
 20
-272.4824996705036
 40
2.018561131933266
 50
269.8110329575858
 51
450.1889670424142
 73
     1
 72
     2
 10
-202.0692984785831
 20
-270.7796647229345
 40
0.3157169230760711
 50
90.18896704254594
 51
180.0
 73
     1
 72
     1
 10
-202.3850154016599
 20
-270.7796647229345
 11
-202.3850154016599
 21
-271.3852000114413
 72
     2
 10
-202.0692984785831
 20
-271.3852000114413
 40
0.315716923076792
 50
180.0
 51
244.6259913216437
 73
     1
 72
     2
 10
-202.595341176671
 20
-272.4943416114091
 40
0.9118481501444968
 50
295.3740086781942
 51
424.6259913218228
 73
     0
 97
        8
330
3F2
330
353
330
3EF
330
3F0
330
3CE
330
352
330
3F1
330
3CD
 92
       16
 93
       12
 72
     2
 10
-204.6448471651148
 20
-275.1359422890035
 40
0.3157169230756836
 50
180.0
 51
270.0
 73
     1
 72
     1
 10
-204.6448471651148
 20
-275.4516592120802
 11
-203.1690139041052
 21
-275.4516592120802
 72
     2
 10
-203.1690139041052
 20
-275.1359422890035
 40
0.3157169230767067
 50
270.0
 51
360.0
 73
     1
 72
     1
 10
-202.8532969810286
 20
-275.1359422890035
 11
-202.8532969810286
 21
-273.6051713574719
 72
     2
 10
-203.1690139041052
 20
-273.6051713574719
 40
0.3157169230766215
 50
0.0
 51
64.80558935145561
 73
     1
 72
     2
 10
-202.6464294565302
 20
-272.4943416114091
 40
0.9118975235576917
 50
115.1944106485122
 51
244.805589351474
 73
     0
 72
     2
 10
-203.1690139041052
 20
-271.3835118653469
 40
0.3157169230760295
 50
295.1944106485531
 51
360.0
 73
     1
 72
     1
 10
-202.8532969810286
 20
-271.3835118653469
 11
-202.8532969810286
 21
-270.7794872462864
 72
     2
 10
-203.1690139041052
 20
-270.7794872462864
 40
0.3157169230766215
 50
0.0
 51
90.0
 73
     1
 72
     1
 10
-203.1690139041052
 20
-270.4637703232102
 11
-204.6448471651148
 21
-270.4637703232102
 72
     2
 10
-204.6448471651148
 20
-270.7794872462864
 40
0.3157169230761951
 50
90.0
 51
180.0
 73
     1
 72
     1
 10
-204.9605640881905
 20
-270.7794872462864
 11
-204.9605640881905
 21
-275.1359422890035
 97
       12
330
3D6
330
38E
330
3D9
330
389
330
3E6
330
3E7
330
3D8
330
388
330
3D7
330
387
330
3E8
330
386
 75
     1
 76
     0
 52
45.0
 41
0.1
 77
     0
 78
     1
 53
45.0
 43
0.0
 44
0.0
 45
-0.0707106781186548
 46
0.0707106781186548
 79
     0
 98
        1
 10
0.0
 20
0.0
  0
HATCH
  5
43E
330
71
100
AcDbEntity
  8
1
  6
Continuous
 62
     2
100
AcDbHatch
 10
0.0
 20
0.0
 30
0.0
210
0.0
220
0.0
230
1.0
  2
_USER
 70
     0
 71
     1
 91
        1
 92
        1
 93
       18
 72
     1
 10
-177.7516372265396
 20
-273.8956705499496
 11
-178.562736264013
 21
-273.8956705499496
 72
     1
 10
-178.562736264013
 20
-273.8956705499496
 11
-178.562736264013
 21
-276.1642147676371
 72
     1
 10
-178.562736264013
 20
-276.1642147676371
 11
-179.7555289661807
 21
-276.1642147676371
 72
     1
 10
-179.7555289661807
 20
-276.1642147676371
 11
-179.7555289661807
 21
-273.8956705499496
 72
     1
 10
-179.7555289661807
 20
-273.8956705499496
 11
-180.8591682657488
 21
-273.8956705499496
 72
     2
 10
-180.8591682657488
 20
-274.8501935567757
 40
0.9545230068260935
 50
90.0
 51
109.337143219432
 73
     1
 72
     2
 10
-181.0058382638525
 20
-274.4322385763928
 40
0.5115800601944143
 50
109.3371432194853
 51
151.4785267424197
 73
     1
 72
     2
 10
-180.6284810057711
 20
-274.6373100057318
 40
0.941059735334906
 50
151.4785267423609
 51
208.5214732576695
 73
     1
 72
     2
 10
-181.0058382638525
 20
-274.8423814350703
 40
0.5115800601960215
 50
208.5214732576866
 51
246.6277221118449
 73
     1
 72
     2
 10
-180.8493982311494
 20
-274.4803894163603
 40
0.9059297849852801
 50
246.6277221118183
 51
288.4480761180817
 73
     1
 72
     2
 10
-181.2675659648113
 20
-273.2268436403237
 40
2.227384008972773
 50
288.4480761181333
 51
301.9309089499387
 73
     1
 72
     1
 10
-180.0895109227874
 20
-275.1171943594735
 11
-180.0895109227874
 21
-275.9897113662768
 72
     2
 10
-181.4254388399041
 20
-271.3246290604754
 40
4.852596863498825
 50
74.0200087416617
 51
84.84185523036365
 73
     0
 72
     2
 10
-181.1365827451683
 20
-274.524519643697
 40
1.639695123940421
 50
84.84185523032279
 51
164.9381082228985
 73
     0
 72
     2
 10
-181.5557105886299
 20
-274.6373100057318
 40
1.205656168393032
 50
164.9381082229054
 51
195.0618917771024
 73
     0
 72
     2
 10
-181.1365827451683
 20
-274.7501003677667
 40
1.639695123940214
 50
195.0618917771091
 51
270.0
 73
     0
 72
     1
 10
-181.1365827451683
 20
-273.1104052438265
 11
-177.7516372265396
 21
-273.110405243826
 72
     1
 10
-177.7516372265396
 20
-273.110405243826
 11
-177.7516372265396
 21
-273.8956705499496
 97
       18
330
355
330
3EB
330
3EC
330
3D4
330
3D3
330
3B9
330
3D2
330
3D1
330
3ED
330
3D0
330
3EE
330
3CF
330
3BA
330
354
330
359
330
358
330
357
330
356
 75
     1
 76
     0
 52
45.0
 41
0.1
 77
     0
 78
     1
 53
45.0
 43
0.0
 44
0.0
 45
-0.0707106781186548
 46
0.0707106781186548
 79
     0
 98
        1
 10
0.0
 20
0.0
  0
HATCH
  5
43F
330
71
100
AcDbEntity
  8
1
  6
Continuous
 62
     2
100
AcDbHatch
 10
0.0
 20
0.0
 30
0.0
210
0.0
220
0.0
230
1.0
  2
_USER
 70
     0
 71
     1
 91
        1
 92
        1
 93
       18
 72
     1
 10
-177.7516372265396
 20
-273.8956705499496
 11
-178.562736264013
 21
-273.8956705499496
 72
     1
 10
-178.562736264013
 20
-273.8956705499496
 11
-178.562736264013
 21
-276.1642147676371
 72
     1
 10
-178.562736264013
 20
-276.1642147676371
 11
-179.7555289661807
 21
-276.1642147676371
 72
     1
 10
-179.7555289661807
 20
-276.1642147676371
 11
-179.7555289661807
 21
-273.8956705499496
 72
     1
 10
-179.7555289661807
 20
-273.8956705499496
 11
-180.8591682657488
 21
-273.8956705499496
 72
     2
 10
-180.8591682657488
 20
-274.8501935567757
 40
0.9545230068260935
 50
90.0
 51
109.337143219432
 73
     1
 72
     2
 10
-181.0058382638525
 20
-274.4322385763928
 40
0.5115800601944143
 50
109.3371432194853
 51
151.4785267424197
 73
     1
 72
     2
 10
-180.6284810057711
 20
-274.6373100057318
 40
0.941059735334906
 50
151.4785267423609
 51
208.5214732576695
 73
     1
 72
     2
 10
-181.0058382638525
 20
-274.8423814350703
 40
0.5115800601960215
 50
208.5214732576866
 51
246.6277221118449
 73
     1
 72
     2
 10
-180.8493982311494
 20
-274.4803894163603
 40
0.9059297849852801
 50
246.6277221118183
 51
288.4480761180817
 73
     1
 72
     2
 10
-181.2675659648113
 20
-273.2268436403237
 40
2.227384008972773
 50
288.4480761181333
 51
301.9309089499387
 73
     1
 72
     1
 10
-180.0895109227874
 20
-275.1171943594735
 11
-180.0895109227874
 21
-275.9897113662768
 72
     2
 10
-181.4254388399041
 20
-271.3246290604754
 40
4.852596863498825
 50
74.0200087416617
 51
84.84185523036365
 73
     0
 72
     2
 10
-181.1365827451683
 20
-274.524519643697
 40
1.639695123940421
 50
84.84185523032279
 51
164.9381082228985
 73
     0
 72
     2
 10
-181.5557105886299
 20
-274.6373100057318
 40
1.205656168393032
 50
164.9381082229054
 51
195.0618917771024
 73
     0
 72
     2
 10
-181.1365827451683
 20
-274.7501003677667
 40
1.639695123940214
 50
195.0618917771091
 51
270.0
 73
     0
 72
     1
 10
-181.1365827451683
 20
-273.1104052438265
 11
-177.7516372265396
 21
-273.110405243826
 72
     1
 10
-177.7516372265396
 20
-273.110405243826
 11
-177.7516372265396
 21
-273.8956705499496
 97
       18
330
355
330
3EB
330
3EC
330
3D4
330
3D3
330
3B9
330
3D2
330
3D1
330
3ED
330
3D0
330
3EE
330
3CF
330
3BA
330
354
330
359
330
358
330
357
330
356
 75
     1
 76
     0
 52
45.0
 41
0.1
 77
     0
 78
     1
 53
45.0
 43
0.0
 44
0.0
 45
-0.0707106781186548
 46
0.0707106781186548
 79
     0
 98
        1
 10
0.0
 20
0.0
  0
HATCH
  5
440
330
71
100
AcDbEntity
  8
1
  6
Continuous
 62
     2
100
AcDbHatch
 10
0.0
 20
0.0
 30
0.0
210
0.0
220
0.0
230
1.0
  2
_USER
 70
     0
 71
     1
 91
        1
 92
        1
 93
       14
 72
     2
 10
-197.2392842244212
 20
-274.7501003677667
 40
1.639695123940507
 50
84.84185523036236
 51
164.9381082228829
 73
     1
 72
     2
 10
-197.658412067884
 20
-274.6373100057318
 40
1.205656168391001
 50
164.9381082228716
 51
195.0618917770945
 73
     1
 72
     2
 10
-197.2392842244212
 20
-274.524519643697
 40
1.639695123939422
 50
195.0618917770903
 51
275.1581447696395
 73
     1
 72
     2
 10
-197.5281403191571
 20
-271.3246290604754
 40
4.852596863498166
 50
275.1581447696249
 51
285.9799912583529
 73
     1
 72
     1
 10
-196.1922124020393
 20
-275.9897113662762
 11
-196.1922124020393
 21
-275.117194359473
 72
     2
 10
-197.3702674440642
 20
-273.2268436403231
 40
2.227384008972719
 50
58.06909105003973
 51
71.55192388186632
 73
     0
 72
     2
 10
-196.9520997104034
 20
-274.4803894163603
 40
0.9059297849849305
 50
71.55192388184098
 51
113.3722778881306
 73
     0
 72
     2
 10
-197.1085397431054
 20
-274.8423814350703
 40
0.5115800601948034
 50
113.3722778881755
 51
151.4785267423044
 73
     0
 72
     2
 10
-196.7311824850251
 20
-274.6373100057318
 40
0.9410597353332545
 50
151.4785267422943
 51
208.5214732577331
 73
     0
 72
     2
 10
-197.1085397431054
 20
-274.4322385763928
 40
0.5115800601949152
 50
208.5214732576956
 51
246.6277221117992
 73
     0
 72
     2
 10
-196.9520997104034
 20
-274.7942305951034
 40
0.9059297849853228
 50
246.6277221118694
 51
288.4480761181465
 73
     0
 72
     2
 10
-197.3702674440642
 20
-276.04777637114
 40
2.227384008973517
 50
288.4480761181333
 51
301.9309089499595
 73
     0
 72
     1
 10
-196.1922124020393
 20
-274.1574256519901
 11
-196.1922124020393
 21
-273.2849086451868
 72
     2
 10
-197.5281403191571
 20
-277.9499909509877
 40
4.85259686349804
 50
74.02000874164729
 51
84.84185523037502
 73
     1
 97
       14
330
3F3
330
3F4
330
3F5
330
3F6
330
3BB
330
3CC
330
3CB
330
3CA
330
3F7
330
3F8
330
3C9
330
3F9
330
3BC
330
3C8
 75
     1
 76
     0
 52
45.0
 41
0.1
 77
     0
 78
     1
 53
45.0
 43
0.0
 44
0.0
 45
-0.0707106781186548
 46
0.0707106781186548
 79
     0
 98
        1
 10
0.0
 20
0.0
  0
HATCH
  5
441
330
71
100
AcDbEntity
  8
1
  6
Continuous
 62
     2
100
AcDbHatch
 10
0.0
 20
0.0
 30
0.0
210
0.0
220
0.0
230
1.0
  2
_USER
 70
     0
 71
     1
 91
        1
 92
        1
 93
       14
 72
     2
 10
-197.2392842244212
 20
-274.7501003677667
 40
1.639695123940507
 50
84.84185523036236
 51
164.9381082228829
 73
     1
 72
     2
 10
-197.658412067884
 20
-274.6373100057318
 40
1.205656168391001
 50
164.9381082228716
 51
195.0618917770945
 73
     1
 72
     2
 10
-197.2392842244212
 20
-274.524519643697
 40
1.639695123939422
 50
195.0618917770903
 51
275.1581447696395
 73
     1
 72
     2
 10
-197.5281403191571
 20
-271.3246290604754
 40
4.852596863498166
 50
275.1581447696249
 51
285.9799912583529
 73
     1
 72
     1
 10
-196.1922124020393
 20
-275.9897113662762
 11
-196.1922124020393
 21
-275.117194359473
 72
     2
 10
-197.3702674440642
 20
-273.2268436403231
 40
2.227384008972719
 50
58.06909105003973
 51
71.55192388186632
 73
     0
 72
     2
 10
-196.9520997104034
 20
-274.4803894163603
 40
0.9059297849849305
 50
71.55192388184098
 51
113.3722778881306
 73
     0
 72
     2
 10
-197.1085397431054
 20
-274.8423814350703
 40
0.5115800601948034
 50
113.3722778881755
 51
151.4785267423044
 73
     0
 72
     2
 10
-196.7311824850251
 20
-274.6373100057318
 40
0.9410597353332545
 50
151.4785267422943
 51
208.5214732577331
 73
     0
 72
     2
 10
-197.1085397431054
 20
-274.4322385763928
 40
0.5115800601949152
 50
208.5214732576956
 51
246.6277221117992
 73
     0
 72
     2
 10
-196.9520997104034
 20
-274.7942305951034
 40
0.9059297849853228
 50
246.6277221118694
 51
288.4480761181465
 73
     0
 72
     2
 10
-197.3702674440642
 20
-276.04777637114
 40
2.227384008973517
 50
288.4480761181333
 51
301.9309089499595
 73
     0
 72
     1
 10
-196.1922124020393
 20
-274.1574256519901
 11
-196.1922124020393
 21
-273.2849086451868
 72
     2
 10
-197.5281403191571
 20
-277.9499909509877
 40
4.85259686349804
 50
74.02000874164729
 51
84.84185523037502
 73
     1
 97
       14
330
3F3
330
3F4
330
3F5
330
3F6
330
3BB
330
3CC
330
3CB
330
3CA
330
3F7
330
3F8
330
3C9
330
3F9
330
3BC
330
3C8
 75
     1
 76
     0
 52
45.0
 41
0.1
 77
     0
 78
     1
 53
45.0
 43
0.0
 44
0.0
 45
-0.0707106781186548
 46
0.0707106781186548
 79
     0
 98
        1
 10
0.0
 20
0.0
  0
ENDBLK
  5
73
330
71
100
AcDbEntity
  8
0
100
AcDbBlockEnd
  0
BLOCK
  5
75
330
74
100
AcDbEntity
  8
0
100
AcDbBlockBegin
  2
_punkt
 70
     0
 10
-80.35483681705672
 20
-283.4577147676534
 30
0.0
  3
_punkt
  1

  0
LINE
  5
442
330
74
100
AcDbEntity
  8
1
  6
Continuous
 62
     2
100
AcDbLine
 10
-80.35483681705672
 20
-283.4577147676534
 30
0.0
 11
-75.35483681705773
 21
-283.4577147676534
 31
0.0
  0
LINE
  5
443
330
74
100
AcDbEntity
  8
1
  6
Continuous
 62
     2
100
AcDbLine
 10
-80.35483681705672
 20
-283.4577147676534
 30
0.0
 11
-80.35483681705672
 21
-288.4577147676535
 31
0.0
  0
ENDBLK
  5
76
330
74
100
AcDbEntity
  8
0
100
AcDbBlockEnd
  0
BLOCK
  5
7A
330
77
100
AcDbEntity
  8
0
100
AcDbBlockBegin
  2
A4I_CS
 70
     0
 10
-80.35483681705672
 20
-288.4577147676535
 30
0.0
  3
A4I_CS
  1

  0
INSERT
  5
78
330
77
100
AcDbEntity
  8
1
100
AcDbBlockReference
  2
_rahmen
 10
-80.35483681705672
 20
-288.4577147676535
 30
0.0
  0
INSERT
  5
79
330
77
100
AcDbEntity
  8
1
100
AcDbBlockReference
  2
_punkt
 10
-80.35483681705672
 20
-283.4577147676534
 30
0.0
  0
ENDBLK
  5
7B
330
77
100
AcDbEntity
  8
0
100
AcDbBlockEnd
  0
BLOCK
  5
84
330
7C
100
AcDbEntity
  8
0
100
AcDbBlockBegin
  2
1
 70
     0
 10
0.0
 20
0.0
 30
0.0
  3
1
  1

  0
INSERT
  5
7D
330
7C
100
AcDbEntity
  8
0
100
AcDbBlockReference
  2
Allg1
 10
-160.0000000238368
 20
-205.500000020643
 30
0.0
  0
INSERT
  5
7E
330
7C
100
AcDbEntity
  8
0
100
AcDbBlockReference
  2
Drfsicht1
 10
-266.1000144332276
 20
-204.4000079550227
 30
0.0
  0
INSERT
  5
7F
330
7C
100
AcDbEntity
  8
0
100
AcDbBlockReference
  2
Rckans1
 10
-153.5
 20
-137.0
 30
0.0
  0
INSERT
  5
80
330
7C
100
AcDbEntity
  8
0
100
AcDbBlockReference
  2
SA_Links1
 10
-209.0500084250795
 20
-137.0
 30
0.0
  0
INSERT
  5
81
330
7C
100
AcDbEntity
  8
0
100
AcDbBlockReference
  2
SA_Rechts1
 10
-341.1500238583068
 20
-137.0
 30
0.0
  0
INSERT
  5
82
330
7C
100
AcDbEntity
  8
0
100
AcDbBlockReference
  2
Vordans1
 10
-266.1000144332276
 20
-136.9999999999999
 30
0.0
  0
INSERT
  5
83
330
7C
100
AcDbEntity
  8
0
100
AcDbBlockReference
  2
A4I_CS
 10
-80.35483681705672
 20
-288.4577147676535
 30
0.0
  0
ENDBLK
  5
85
330
7C
100
AcDbEntity
  8
0
100
AcDbBlockEnd
  0
BLOCK
  5
1F0
330
1E7
100
AcDbEntity
  8
0
100
AcDbBlockBegin
  2
*D17
 70
     1
 10
0.0
 20
0.0
 30
0.0
  3
*D17
  1

  0
LINE
  5
1E8
330
1E7
100
AcDbEntity
  8
1
  6
Continuous
 62
     2
100
AcDbLine
 10
-298.3000145401708
 20
-214.4750080026964
 30
0.0
 11
-298.3000145401708
 21
-207.4750080026964
 31
0.0
  0
LINE
  5
1E9
330
1E7
100
AcDbEntity
  8
1
  6
Continuous
 62
     2
100
AcDbLine
 10
-298.3000145401708
 20
-207.4750080026964
 30
0.0
 11
-298.3000145401708
 21
-201.3250080026964
 31
0.0
  0
LINE
  5
1EA
330
1E7
100
AcDbEntity
  8
1
  6
Continuous
 62
     2
100
AcDbLine
 10
-298.3000145401708
 20
-201.3250080026964
 30
0.0
 11
-298.3000145401708
 21
-194.3250080026964
 31
0.0
  0
LINE
  5
1EB
330
1E7
100
AcDbEntity
  8
1
  6
Continuous
 62
     2
100
AcDbLine
 10
-294.0500145401708
 20
-207.4750080026964
 30
0.0
 11
-299.8000145401708
 21
-207.4750080026964
 31
0.0
  0
LINE
  5
1EC
330
1E7
100
AcDbEntity
  8
1
  6
Continuous
 62
     2
100
AcDbLine
 10
-294.0500145401708
 20
-201.3250080026964
 30
0.0
 11
-299.8000145401708
 21
-201.3250080026964
 31
0.0
  0
SOLID
  5
1ED
330
1E7
100
AcDbEntity
  8
1
 62
     2
100
AcDbTrace
 10
-297.8392307986149
 20
-210.9750080026964
 30
0.0
 11
-298.7607982817266
 21
-210.9750080026964
 31
0.0
 12
-298.3000145401708
 22
-207.4750080026964
 32
0.0
 13
-298.3000145401708
 23
-207.4750080026964
 33
0.0
  0
SOLID
  5
1EE
330
1E7
100
AcDbEntity
  8
1
 62
     2
100
AcDbTrace
 10
-298.7607982817266
 20
-197.8250080026964
 30
0.0
 11
-297.8392307986149
 21
-197.8250080026964
 31
0.0
 12
-298.3000145401708
 22
-201.3250080026964
 32
0.0
 13
-298.3000145401708
 23
-201.3250080026964
 33
0.0
  0
MTEXT
  5
1EF
330
1E7
100
AcDbEntity
  8
1
 62
     3
100
AcDbMText
 10
-300.1500145401708
 20
-208.6875080026964
 30
0.0
 40
3.5
 41
0.0
 71
     7
 72
     1
  1
6,15
  7
CONVERTER_11
 11
0.0
 21
1.0
 31
0.0
 73
     1
 44
0.60024009603842
  0
ENDBLK
  5
1F1
330
1E7
100
AcDbEntity
  8
0
100
AcDbBlockEnd
  0
BLOCK
  5
2DB
330
2D4
100
AcDbEntity
  8
0
100
AcDbBlockBegin
  2
*D18
 70
     1
 10
0.0
 20
0.0
 30
0.0
  3
*D18
  1

  0
LINE
  5
2D5
330
2D4
100
AcDbEntity
  8
1
  6
Continuous
 62
     2
100
AcDbLine
 10
-266.1500145401712
 20
-168.211609669414
 30
0.0
 11
-238.1500145401711
 21
-168.211609669414
 31
0.0
  0
LINE
  5
2D6
330
2D4
100
AcDbEntity
  8
1
  6
Continuous
 62
     2
100
AcDbLine
 10
-266.1500145401712
 20
-149.7249999999999
 30
0.0
 11
-266.1500145401712
 21
-169.711609669414
 31
0.0
  0
LINE
  5
2D7
330
2D4
100
AcDbEntity
  8
1
  6
Continuous
 62
     2
100
AcDbLine
 10
-238.1500145401711
 20
-145.425
 30
0.0
 11
-238.1500145401711
 21
-169.711609669414
 31
0.0
  0
SOLID
  5
2D8
330
2D4
100
AcDbEntity
  8
1
 62
     2
100
AcDbTrace
 10
-262.6500145401712
 20
-167.7508259278581
 30
0.0
 11
-262.6500145401712
 21
-168.6723934109699
 31
0.0
 12
-266.1500145401712
 22
-168.211609669414
 32
0.0
 13
-266.1500145401712
 23
-168.211609669414
 33
0.0
  0
SOLID
  5
2D9
330
2D4
100
AcDbEntity
  8
1
 62
     2
100
AcDbTrace
 10
-241.6500145401711
 20
-168.6723934109699
 30
0.0
 11
-241.6500145401711
 21
-167.7508259278581
 31
0.0
 12
-238.1500145401711
 22
-168.211609669414
 32
0.0
 13
-238.1500145401711
 23
-168.211609669414
 33
0.0
  0
MTEXT
  5
2DA
330
2D4
100
AcDbEntity
  8
1
 62
     3
100
AcDbMText
 10
-255.893097931575
 20
-166.711609669414
 30
0.0
 40
3.5
 41
0.0
 71
     7
 72
     1
  1
28
  7
CONVERTER_11
 11
0.9999999999970619
 21
2.424068405545306E-6
 31
0.0
 73
     1
 44
0.60024009603842
  0
ENDBLK
  5
2DC
330
2D4
100
AcDbEntity
  8
0
100
AcDbBlockEnd
  0
BLOCK
  5
2E6
330
2DF
100
AcDbEntity
  8
0
100
AcDbBlockBegin
  2
*D19
 70
     1
 10
0.0
 20
0.0
 30
0.0
  3
*D19
  1

  0
LINE
  5
2E0
330
2DF
100
AcDbEntity
  8
1
  6
Continuous
 62
     2
100
AcDbLine
 10
-266.1500145401712
 20
-159.7249999999998
 30
0.0
 11
-248.6500145401712
 21
-159.7249999999998
 31
0.0
  0
LINE
  5
2E1
330
2DF
100
AcDbEntity
  8
1
  6
Continuous
 62
     2
100
AcDbLine
 10
-266.1500145401712
 20
-149.7249999999998
 30
0.0
 11
-266.1500145401712
 21
-161.2249999999998
 31
0.0
  0
LINE
  5
2E2
330
2DF
100
AcDbEntity
  8
1
  6
Continuous
 62
     2
100
AcDbLine
 10
-248.6500145401712
 20
-149.7249999999998
 30
0.0
 11
-248.6500145401712
 21
-161.2249999999998
 31
0.0
  0
SOLID
  5
2E3
330
2DF
100
AcDbEntity
  8
1
 62
     2
100
AcDbTrace
 10
-262.6500145401712
 20
-159.264216258444
 30
0.0
 11
-262.6500145401712
 21
-160.1857837415557
 31
0.0
 12
-266.1500145401712
 22
-159.7249999999998
 32
0.0
 13
-266.1500145401712
 23
-159.7249999999998
 33
0.0
  0
SOLID
  5
2E4
330
2DF
100
AcDbEntity
  8
1
 62
     2
100
AcDbTrace
 10
-252.1500145401712
 20
-160.1857837415557
 30
0.0
 11
-252.1500145401712
 21
-159.264216258444
 31
0.0
 12
-248.6500145401712
 22
-159.7249999999998
 32
0.0
 13
-248.6500145401712
 23
-159.7249999999998
 33
0.0
  0
MTEXT
  5
2E5
330
2DF
100
AcDbEntity
  8
1
 62
     3
100
AcDbMText
 10
-261.047268033033
 20
-157.8749999999998
 30
0.0
 40
3.5
 41
0.0
 71
     7
 72
     1
  1
17,5
  7
CONVERTER_11
 11
0.9999999999970619
 21
2.424068405545306E-6
 31
0.0
 73
     1
 44
0.60024009603842
  0
ENDBLK
  5
2E7
330
2DF
100
AcDbEntity
  8
0
100
AcDbBlockEnd
  0
BLOCK
  5
2F1
330
2EA
100
AcDbEntity
  8
0
100
AcDbBlockBegin
  2
*D20
 70
     1
 10
0.0
 20
0.0
 30
0.0
  3
*D20
  1

  0
LINE
  5
2EB
330
2EA
100
AcDbEntity
  8
1
  6
Continuous
 62
     2
100
AcDbLine
 10
-308.901002028858
 20
-119.3749999999998
 30
0.0
 11
-308.901002028858
 21
-154.6250000000002
 31
0.0
  0
LINE
  5
2EC
330
2EA
100
AcDbEntity
  8
1
  6
Continuous
 62
     2
100
AcDbLine
 10
-292.0898203108245
 20
-119.3749999999998
 30
0.0
 11
-310.401002028858
 21
-119.3749999999998
 31
0.0
  0
LINE
  5
2ED
330
2EA
100
AcDbEntity
  8
1
  6
Continuous
 62
     2
100
AcDbLine
 10
-294.0500145401716
 20
-154.6250000000002
 30
0.0
 11
-310.401002028858
 21
-154.6250000000002
 31
0.0
  0
SOLID
  5
2EE
330
2EA
100
AcDbEntity
  8
1
 62
     2
100
AcDbTrace
 10
-308.4402182873021
 20
-122.8749999999998
 30
0.0
 11
-309.3617857704139
 21
-122.8749999999998
 31
0.0
 12
-308.901002028858
 22
-119.3749999999998
 32
0.0
 13
-308.901002028858
 23
-119.3749999999998
 33
0.0
  0
SOLID
  5
2EF
330
2EA
100
AcDbEntity
  8
1
 62
     2
100
AcDbTrace
 10
-309.3617857704139
 20
-151.1250000000002
 30
0.0
 11
-308.4402182873021
 21
-151.1250000000002
 31
0.0
 12
-308.901002028858
 22
-154.6250000000002
 32
0.0
 13
-308.901002028858
 23
-154.6250000000002
 33
0.0
  0
MTEXT
  5
2F0
330
2EA
100
AcDbEntity
  8
1
 62
     3
100
AcDbMText
 10
-310.751002028858
 20
-142.159817253449
 30
0.0
 40
3.5
 41
0.0
 71
     7
 72
     1
  1
35,25
  7
CONVERTER_11
 11
0.0
 21
1.0
 31
0.0
 73
     1
 44
0.60024009603842
  0
ENDBLK
  5
2F2
330
2EA
100
AcDbEntity
  8
0
100
AcDbBlockEnd
  0
BLOCK
  5
2FC
330
2F5
100
AcDbEntity
  8
0
100
AcDbBlockBegin
  2
*D21
 70
     1
 10
0.0
 20
0.0
 30
0.0
  3
*D21
  1

  0
LINE
  5
2F6
330
2F5
100
AcDbEntity
  8
1
  6
Continuous
 62
     2
100
AcDbLine
 10
-294.0500145401716
 20
-177.8750000000002
 30
0.0
 11
-238.1500145401711
 21
-177.8750000000002
 31
0.0
  0
LINE
  5
2F7
330
2F5
100
AcDbEntity
  8
1
  6
Continuous
 62
     2
100
AcDbLine
 10
-294.0500145401716
 20
-154.6250000000002
 30
0.0
 11
-294.0500145401716
 21
-179.3750000000002
 31
0.0
  0
LINE
  5
2F8
330
2F5
100
AcDbEntity
  8
1
  6
Continuous
 62
     2
100
AcDbLine
 10
-238.1500145401711
 20
-145.4249999999999
 30
0.0
 11
-238.1500145401711
 21
-179.3750000000002
 31
0.0
  0
SOLID
  5
2F9
330
2F5
100
AcDbEntity
  8
1
 62
     2
100
AcDbTrace
 10
-290.5500145401716
 20
-177.4142162584443
 30
0.0
 11
-290.5500145401716
 21
-178.3357837415561
 31
0.0
 12
-294.0500145401716
 22
-177.8750000000002
 32
0.0
 13
-294.0500145401716
 23
-177.8750000000002
 33
0.0
  0
SOLID
  5
2FA
330
2F5
100
AcDbEntity
  8
1
 62
     2
100
AcDbTrace
 10
-241.6500145401711
 20
-178.3357837415561
 30
0.0
 11
-241.6500145401711
 21
-177.4142162584443
 31
0.0
 12
-238.1500145401711
 22
-177.8750000000002
 32
0.0
 13
-238.1500145401711
 23
-177.8750000000002
 33
0.0
  0
MTEXT
  5
2FB
330
2F5
100
AcDbEntity
  8
1
 62
     3
100
AcDbMText
 10
-271.9125145401714
 20
-176.0250000000002
 30
0.0
 40
3.5
 41
0.0
 71
     7
 72
     1
  1
55,9
  7
CONVERTER_11
 11
0.9999999999970619
 21
2.424068405545306E-6
 31
0.0
 73
     1
 44
0.60024009603842
  0
ENDBLK
  5
2FD
330
2F5
100
AcDbEntity
  8
0
100
AcDbBlockEnd
  0
BLOCK
  5
307
330
300
100
AcDbEntity
  8
0
100
AcDbBlockBegin
  2
*D22
 70
     1
 10
0.0
 20
0.0
 30
0.0
  3
*D22
  1

  0
LINE
  5
301
330
300
100
AcDbEntity
  8
1
  6
Continuous
 62
     2
100
AcDbLine
 10
-298.3000145401716
 20
-154.6250000000002
 30
0.0
 11
-298.3000145401716
 21
-119.3749999999998
 31
0.0
  0
LINE
  5
302
330
300
100
AcDbEntity
  8
1
  6
Continuous
 62
     2
100
AcDbLine
 10
-294.0500145401716
 20
-154.6250000000002
 30
0.0
 11
-299.8000145401716
 21
-154.6250000000002
 31
0.0
  0
LINE
  5
303
330
300
100
AcDbEntity
  8
1
  6
Continuous
 62
     2
100
AcDbLine
 10
-292.0898203108246
 20
-119.3749999999998
 30
0.0
 11
-299.8000145401716
 21
-119.3749999999998
 31
0.0
  0
SOLID
  5
304
330
300
100
AcDbEntity
  8
1
 62
     2
100
AcDbTrace
 10
-298.7607982817275
 20
-151.1250000000002
 30
0.0
 11
-297.8392307986157
 21
-151.1250000000002
 31
0.0
 12
-298.3000145401716
 22
-154.6250000000002
 32
0.0
 13
-298.3000145401716
 23
-154.6250000000002
 33
0.0
  0
SOLID
  5
305
330
300
100
AcDbEntity
  8
1
 62
     2
100
AcDbTrace
 10
-297.8392307986157
 20
-122.8749999999998
 30
0.0
 11
-298.7607982817275
 21
-122.8749999999998
 31
0.0
 12
-298.3000145401716
 22
-119.3749999999998
 32
0.0
 13
-298.3000145401716
 23
-119.3749999999998
 33
0.0
  0
MTEXT
  5
306
330
300
100
AcDbEntity
  8
1
 62
     3
100
AcDbMText
 10
-300.1500145401716
 20
-141.8125
 30
0.0
 40
3.5
 41
0.0
 71
     7
 72
     1
  1
35,3
  7
CONVERTER_11
 11
0.0
 21
1.0
 31
0.0
 73
     1
 44
0.60024009603842
  0
ENDBLK
  5
308
330
300
100
AcDbEntity
  8
0
100
AcDbBlockEnd
  0
ENDSEC
  0
SECTION
  2
ENTITIES
  0
INSERT
  5
86
330
1F
100
AcDbEntity
  8
1
100
AcDbBlockReference
  2
1
 10
0.0
 20
0.0
 30
0.0
  0
ENDSEC
  0
SECTION
  2
OBJECTS
  0
DICTIONARY
  5
C
330
0
100
AcDbDictionary
281
     1
  3
ACAD_GROUP
350
D
  3
ACAD_LAYOUT
350
1A
  3
ACAD_MATERIAL
350
3B
  3
ACAD_MLEADERSTYLE
350
46B
  3
ACAD_MLINESTYLE
350
17
  3
ACAD_PLOTSETTINGS
350
19
  3
ACAD_PLOTSTYLENAME
350
E
  3
ACAD_TABLESTYLE
350
46A
  3
ACAD_VISUALSTYLE
350
2A
  0
DICTIONARY
  5
D
102
{ACAD_REACTORS
330
C
102
}
330
C
100
AcDbDictionary
281
     1
  0
DICTIONARY
  5
1A
102
{ACAD_REACTORS
330
C
102
}
330
C
100
AcDbDictionary
281
     1
  3
Layout1
350
1E
  3
Layout2
350
26
  3
Model
350
22
  0
DICTIONARY
  5
3B
102
{ACAD_REACTORS
330
C
102
}
330
C
100
AcDbDictionary
281
     1
  3
ByBlock
350
3D
  3
ByLayer
350
3C
  3
Global
350
3E
  0
DICTIONARY
  5
46B
102
{ACAD_REACTORS
330
C
102
}
330
C
100
AcDbDictionary
281
     1
  0
DICTIONARY
  5
17
102
{ACAD_REACTORS
330
C
102
}
330
C
100
AcDbDictionary
281
     1
  3
Standard
350
18
  0
DICTIONARY
  5
19
102
{ACAD_REACTORS
330
C
102
}
330
C
100
AcDbDictionary
281
     1
  0
ACDBDICTIONARYWDFLT
  5
E
102
{ACAD_REACTORS
330
C
102
}
330
C
100
AcDbDictionary
281
     1
  3
Normal
350
F
100
AcDbDictionaryWithDefault
340
F
  0
DICTIONARY
  5
46A
102
{ACAD_REACTORS
330
C
102
}
330
C
100
AcDbDictionary
281
     1
  0
DICTIONARY
  5
2A
102
{ACAD_REACTORS
330
C
102
}
330
C
100
AcDbDictionary
281
     1
  3
2dWireframe
350
2F
  3
3D Hidden
350
31
  3
3dWireframe
350
30
  3
Basic
350
32
  3
Brighten
350
36
  3
ColorChange
350
3A
  3
Conceptual
350
34
  3
Dim
350
35
  3
Facepattern
350
39
  3
Flat
350
2B
  3
FlatWithEdges
350
2C
  3
Gouraud
350
2D
  3
GouraudWithEdges
350
2E
  3
Linepattern
350
38
  3
Realistic
350
33
  3
Thicken
350
37
  0
LAYOUT
  5
1E
102
{ACAD_REACTORS
330
1A
102
}
330
1A
100
AcDbPlotSettings
  1

  2
none_device
  4

  6

 40
0.0
 41
0.0
 42
0.0
 43
0.0
 44
0.0
 45
0.0
 46
0.0
 47
0.0
 48
0.0
 49
0.0
140
0.0
141
0.0
142
1.0
143
1.0
 70
   688
 72
     0
 73
     0
 74
     5
  7

 75
    16
 76
     0
 77
     2
 78
   300
147
1.0
148
0.0
149
0.0
100
AcDbLayout
  1
Layout1
 70
     1
 71
     1
 10
0.0
 20
0.0
 11
12.0
 21
9.0
 12
0.0
 22
0.0
 32
0.0
 14
1.00000000000000E+20
 24
1.00000000000000E+20
 34
1.00000000000000E+20
 15
-1.00000000000000E+20
 25
-1.00000000000000E+20
 35
-1.00000000000000E+20
146
0.0
 13
0.0
 23
0.0
 33
0.0
 16
1.0
 26
0.0
 36
0.0
 17
0.0
 27
1.0
 37
0.0
 76
     0
330
1B
  0
LAYOUT
  5
26
102
{ACAD_REACTORS
330
1A
102
}
330
1A
100
AcDbPlotSettings
  1

  2
none_device
  4

  6

 40
0.0
 41
0.0
 42
0.0
 43
0.0
 44
0.0
 45
0.0
 46
0.0
 47
0.0
 48
0.0
 49
0.0
140
0.0
141
0.0
142
1.0
143
1.0
 70
   688
 72
     0
 73
     0
 74
     5
  7

 75
    16
 76
     0
 77
     2
 78
   300
147
1.0
148
0.0
149
0.0
100
AcDbLayout
  1
Layout2
 70
     1
 71
     2
 10
0.0
 20
0.0
 11
0.0
 21
0.0
 12
0.0
 22
0.0
 32
0.0
 14
0.0
 24
0.0
 34
0.0
 15
0.0
 25
0.0
 35
0.0
146
0.0
 13
0.0
 23
0.0
 33
0.0
 16
1.0
 26
0.0
 36
0.0
 17
0.0
 27
1.0
 37
0.0
 76
     0
330
23
  0
LAYOUT
  5
22
102
{ACAD_REACTORS
330
1A
102
}
330
1A
100
AcDbPlotSettings
  1

  2
none_device
  4

  6

 40
0.0
 41
0.0
 42
0.0
 43
0.0
 44
0.0
 45
0.0
 46
0.0
 47
0.0
 48
0.0
 49
0.0
140
0.0
141
0.0
142
1.0
143
1.0
 70
  1712
 72
     0
 73
     0
 74
     0
  7

 75
     0
 76
     0
 77
     2
 78
   300
147
1.0
148
0.0
149
0.0
100
AcDbLayout
  1
Model
 70
     1
 71
     0
 10
0.0
 20
0.0
 11
12.0
 21
9.0
 12
0.0
 22
0.0
 32
0.0
 14
-372.3548368170558
 24
-288.4577147676535
 34
0.0
 15
-75.35483681705773
 25
-78.45771476765339
 35
0.0
146
0.0
 13
0.0
 23
0.0
 33
0.0
 16
1.0
 26
0.0
 36
0.0
 17
0.0
 27
1.0
 37
0.0
 76
     0
330
1F
331
29
  0
MATERIAL
  5
3D
102
{ACAD_REACTORS
330
3B
102
}
102
{ACAD_XDICTIONARY
360
466
102
}
330
3B
100
AcDbMaterial
  1
ByBlock
  0
MATERIAL
  5
3C
102
{ACAD_REACTORS
330
3B
102
}
102
{ACAD_XDICTIONARY
360
464
102
}
330
3B
100
AcDbMaterial
  1
ByLayer
  0
MATERIAL
  5
3E
102
{ACAD_REACTORS
330
3B
102
}
102
{ACAD_XDICTIONARY
360
468
102
}
330
3B
100
AcDbMaterial
  1
Global
  0
MLINESTYLE
  5
18
102
{ACAD_REACTORS
330
17
102
}
330
17
100
AcDbMlineStyle
  2
Standard
 70
     0
  3

 62
   256
 51
90.0
 52
90.0
 71
     2
 49
0.5
 62
   256
  6
BYLAYER
 49
-0.5
 62
   256
  6
BYLAYER
  0
ACDBPLACEHOLDER
  5
F
102
{ACAD_REACTORS
330
E
102
}
330
E
  0
VISUALSTYLE
  5
2F
102
{ACAD_REACTORS
330
2A
102
}
102
{ACAD_XDICTIONARY
360
44C
102
}
330
2A
100
AcDbVisualStyle
  2
2dWireframe
 70
     4
 71
     0
 72
     2
 73
     0
 90
        0
 40
-0.6
 41
-30.0
 62
     5
 63
     7
421
 16777215
 74
     1
 91
        4
 64
     7
 65
   257
 75
     1
175
     1
 42
1.0
 92
        0
 66
   257
 43
1.0
 76
     1
 77
     6
 78
     2
 67
     7
 79
     5
170
     0
171
     0
290
     0
174
     0
 93
        1
 44
0.0
173
     0
291
     0
 45
0.0
1001
ACAD
1000
AcDbSavedByObjectVersion
1070
     0
  0
VISUALSTYLE
  5
31
102
{ACAD_REACTORS
330
2A
102
}
102
{ACAD_XDICTIONARY
360
450
102
}
330
2A
100
AcDbVisualStyle
  2
3D Hidden
 70
     6
 71
     1
 72
     2
 73
     2
 90
        0
 40
-0.6
 41
-30.0
 62
     5
 63
     7
421
 16777215
 74
     2
 91
        2
 64
     7
 65
   257
 75
     2
175
     1
 42
40.0
 92
        0
 66
   257
 43
1.0
 76
     1
 77
     6
 78
     2
 67
     7
 79
     3
170
     0
171
     0
290
     0
174
     0
 93
        1
 44
0.0
173
     0
291
     0
 45
0.0
1001
ACAD
1000
AcDbSavedByObjectVersion
1070
     0
  0
VISUALSTYLE
  5
30
102
{ACAD_REACTORS
330
2A
102
}
102
{ACAD_XDICTIONARY
360
44E
102
}
330
2A
100
AcDbVisualStyle
  2
3dWireframe
 70
     5
 71
     0
 72
     2
 73
     0
 90
        0
 40
-0.6
 41
-30.0
 62
     5
 63
     7
421
 16777215
 74
     1
 91
        4
 64
     7
 65
   257
 75
     1
175
     1
 42
1.0
 92
        0
 66
   257
 43
1.0
 76
     1
 77
     6
 78
     2
 67
     7
 79
     5
170
     0
171
     0
290
     0
174
     0
 93
        1
 44
0.0
173
     0
291
     0
 45
0.0
1001
ACAD
1000
AcDbSavedByObjectVersion
1070
     0
  0
VISUALSTYLE
  5
32
102
{ACAD_REACTORS
330
2A
102
}
102
{ACAD_XDICTIONARY
360
452
102
}
330
2A
100
AcDbVisualStyle
  2
Basic
 70
     7
 71
     1
 72
     0
 73
     1
 90
        0
 40
-0.6
 41
-30.0
 62
     5
 63
     7
421
 16777215
 74
     0
 91
        4
 64
     7
 65
   257
 75
     1
175
     1
 42
1.0
 92
        8
 66
     7
 43
1.0
 76
     1
 77
     6
 78
     2
 67
     7
 79
     5
170
     0
171
     0
290
     0
174
     0
 93
        1
 44
0.0
173
     0
291
     1
 45
0.0
1001
ACAD
1000
AcDbSavedByObjectVersion
1070
     0
  0
VISUALSTYLE
  5
36
102
{ACAD_REACTORS
330
2A
102
}
102
{ACAD_XDICTIONARY
360
45A
102
}
330
2A
100
AcDbVisualStyle
  2
Brighten
 70
    12
 71
     2
 72
     2
 73
     0
 90
        0
 40
-0.6
 41
-30.0
 62
     5
 63
     7
421
 16777215
 74
     1
 91
        4
 64
     7
 65
   257
 75
     1
175
     1
 42
1.0
 92
        8
 66
     7
 43
1.0
 76
     1
 77
     6
 78
     2
 67
     7
 79
     5
170
     0
171
     0
290
     0
174
     0
 93
        1
 44
50.0
173
     0
291
     1
 45
0.0
1001
ACAD
1000
AcDbSavedByObjectVersion
1070
     0
  0
VISUALSTYLE
  5
3A
102
{ACAD_REACTORS
330
2A
102
}
102
{ACAD_XDICTIONARY
360
462
102
}
330
2A
100
AcDbVisualStyle
  2
ColorChange
 70
    16
 71
     2
 72
     2
 73
     3
 90
        0
 40
-0.6
 41
-30.0
 62
     5
 63
     8
421
  8421504
 74
     1
 91
        4
 64
     7
 65
   257
 75
     1
175
     1
 42
1.0
 92
        8
 66
     8
424
  8421504
 43
1.0
 76
     1
 77
     6
 78
     2
 67
     7
 79
     5
170
     0
171
     0
290
     0
174
     0
 93
        1
 44
0.0
173
     0
291
     1
 45
0.0
1001
ACAD
1000
AcDbSavedByObjectVersion
1070
     0
  0
VISUALSTYLE
  5
34
102
{ACAD_REACTORS
330
2A
102
}
102
{ACAD_XDICTIONARY
360
456
102
}
330
2A
100
AcDbVisualStyle
  2
Conceptual
 70
     9
 71
     3
 72
     2
 73
     0
 90
        0
 40
-0.6
 41
-30.0
 62
     5
 63
     7
421
 16777215
 74
     2
 91
        2
 64
     7
 65
   257
 75
     1
175
     1
 42
40.0
 92
        8
 66
     7
 43
1.0
 76
     1
 77
     6
 78
     2
 67
     7
 79
     3
170
     0
171
     0
290
     0
174
     0
 93
        1
 44
0.0
173
     0
291
     0
 45
0.0
1001
ACAD
1000
AcDbSavedByObjectVersion
1070
     0
  0
VISUALSTYLE
  5
35
102
{ACAD_REACTORS
330
2A
102
}
102
{ACAD_XDICTIONARY
360
458
102
}
330
2A
100
AcDbVisualStyle
  2
Dim
 70
    11
 71
     2
 72
     2
 73
     0
 90
        0
 40
-0.6
 41
-30.0
 62
     5
 63
     7
421
 16777215
 74
     1
 91
        4
 64
     7
 65
   257
 75
     1
175
     1
 42
1.0
 92
        8
 66
     7
 43
1.0
 76
     1
 77
     6
 78
     2
 67
     7
 79
     5
170
     0
171
     0
290
     0
174
     0
 93
        1
 44
-50.0
173
     0
291
     1
 45
0.0
1001
ACAD
1000
AcDbSavedByObjectVersion
1070
     0
  0
VISUALSTYLE
  5
39
102
{ACAD_REACTORS
330
2A
102
}
102
{ACAD_XDICTIONARY
360
460
102
}
330
2A
100
AcDbVisualStyle
  2
Facepattern
 70
    15
 71
     2
 72
     2
 73
     0
 90
        0
 40
-0.6
 41
-30.0
 62
     5
 63
     7
421
 16777215
 74
     1
 91
        4
 64
     7
 65
   257
 75
     1
175
     1
 42
1.0
 92
        8
 66
     7
 43
1.0
 76
     1
 77
     6
 78
     2
 67
     7
 79
     5
170
     0
171
     0
290
     0
174
     0
 93
        1
 44
0.0
173
     0
291
     1
 45
0.0
1001
ACAD
1000
AcDbSavedByObjectVersion
1070
     0
  0
VISUALSTYLE
  5
2B
102
{ACAD_REACTORS
330
2A
102
}
102
{ACAD_XDICTIONARY
360
444
102
}
330
2A
100
AcDbVisualStyle
  2
Flat
 70
     0
 71
     2
 72
     1
 73
     1
 90
        2
 40
-0.6
 41
30.0
 62
     5
 63
     7
421
 16777215
 74
     0
 91
        4
 64
     7
 65
   257
 75
     1
175
     1
 42
1.0
 92
        8
 66
     7
 43
1.0
 76
     1
 77
     6
 78
     2
 67
     7
 79
     5
170
     0
171
     0
290
     0
174
     0
 93
       13
 44
0.0
173
     0
291
     1
 45
0.0
1001
ACAD
1000
AcDbSavedByObjectVersion
1070
     0
  0
VISUALSTYLE
  5
2C
102
{ACAD_REACTORS
330
2A
102
}
102
{ACAD_XDICTIONARY
360
446
102
}
330
2A
100
AcDbVisualStyle
  2
FlatWithEdges
 70
     1
 71
     2
 72
     1
 73
     1
 90
        2
 40
-0.6
 41
30.0
 62
     5
 63
     7
421
 16777215
 74
     1
 91
        4
 64
     7
 65
   257
 75
     1
175
     1
 42
1.0
 92
        0
 66
   257
 43
1.0
 76
     1
 77
     6
 78
     2
 67
     7
 79
     5
170
     0
171
     0
290
     0
174
     0
 93
       13
 44
0.0
173
     0
291
     1
 45
0.0
1001
ACAD
1000
AcDbSavedByObjectVersion
1070
     0
  0
VISUALSTYLE
  5
2D
102
{ACAD_REACTORS
330
2A
102
}
102
{ACAD_XDICTIONARY
360
448
102
}
330
2A
100
AcDbVisualStyle
  2
Gouraud
 70
     2
 71
     2
 72
     2
 73
     1
 90
        2
 40
-0.6
 41
30.0
 62
     5
 63
     7
421
 16777215
 74
     0
 91
        4
 64
     7
 65
   257
 75
     1
175
     1
 42
1.0
 92
        0
 66
     7
 43
1.0
 76
     1
 77
     6
 78
     2
 67
     7
 79
     5
170
     0
171
     0
290
     0
174
     0
 93
       13
 44
0.0
173
     0
291
     1
 45
0.0
1001
ACAD
1000
AcDbSavedByObjectVersion
1070
     0
  0
VISUALSTYLE
  5
2E
102
{ACAD_REACTORS
330
2A
102
}
102
{ACAD_XDICTIONARY
360
44A
102
}
330
2A
100
AcDbVisualStyle
  2
GouraudWithEdges
 70
     3
 71
     2
 72
     2
 73
     1
 90
        2
 40
-0.6
 41
30.0
 62
     5
 63
     7
421
 16777215
 74
     1
 91
        4
 64
     7
 65
   257
 75
     1
175
     1
 42
1.0
 92
        0
 66
   257
 43
1.0
 76
     1
 77
     6
 78
     2
 67
     7
 79
     5
170
     0
171
     0
290
     0
174
     0
 93
       13
 44
0.0
173
     0
291
     1
 45
0.0
1001
ACAD
1000
AcDbSavedByObjectVersion
1070
     0
  0
VISUALSTYLE
  5
38
102
{ACAD_REACTORS
330
2A
102
}
102
{ACAD_XDICTIONARY
360
45E
102
}
330
2A
100
AcDbVisualStyle
  2
Linepattern
 70
    14
 71
     2
 72
     2
 73
     0
 90
        0
 40
-0.6
 41
-30.0
 62
     5
 63
     7
421
 16777215
 74
     1
 91
        4
 64
     7
 65
   257
 75
     7
175
     7
 42
1.0
 92
        8
 66
     7
 43
1.0
 76
     1
 77
     6
 78
     2
 67
     7
 79
     5
170
     0
171
     0
290
     0
174
     0
 93
        1
 44
0.0
173
     0
291
     1
 45
0.0
1001
ACAD
1000
AcDbSavedByObjectVersion
1070
     0
  0
VISUALSTYLE
  5
33
102
{ACAD_REACTORS
330
2A
102
}
102
{ACAD_XDICTIONARY
360
454
102
}
330
2A
100
AcDbVisualStyle
  2
Realistic
 70
     8
 71
     2
 72
     2
 73
     0
 90
        0
 40
-0.6
 41
-30.0
 62
     5
 63
     7
421
 16777215
 74
     1
 91
        0
 64
     7
 65
   257
 75
     1
175
     1
 42
1.0
 92
        8
 66
     8
424
  7895160
 43
1.0
 76
     1
 77
     6
 78
     2
 67
     7
 79
     5
170
     0
171
     0
290
     0
174
     0
 93
       13
 44
0.0
173
     0
291
     0
 45
0.0
1001
ACAD
1000
AcDbSavedByObjectVersion
1070
     0
  0
VISUALSTYLE
  5
37
102
{ACAD_REACTORS
330
2A
102
}
102
{ACAD_XDICTIONARY
360
45C
102
}
330
2A
100
AcDbVisualStyle
  2
Thicken
 70
    13
 71
     2
 72
     2
 73
     0
 90
        0
 40
-0.6
 41
-30.0
 62
     5
 63
     7
421
 16777215
 74
     1
 91
        4
 64
     7
 65
   257
 75
     1
175
     1
 42
1.0
 92
       12
 66
     7
 43
1.0
 76
     1
 77
     6
 78
     2
 67
     7
 79
     5
170
     0
171
     0
290
     0
174
     0
 93
        1
 44
0.0
173
     0
291
     1
 45
0.0
1001
ACAD
1000
AcDbSavedByObjectVersion
1070
     0
  0
DICTIONARY
  5
466
330
3D
100
AcDbDictionary
280
     1
281
     1
  3
ACAD_XREC_ROUNDTRIP
360
467
  0
DICTIONARY
  5
464
330
3C
100
AcDbDictionary
280
     1
281
     1
  3
ACAD_XREC_ROUNDTRIP
360
465
  0
DICTIONARY
  5
468
330
3E
100
AcDbDictionary
280
     1
281
     1
  3
ACAD_XREC_ROUNDTRIP
360
469
  0
DICTIONARY
  5
44C
330
2F
100
AcDbDictionary
280
     1
281
     1
  3
ACAD_XREC_ROUNDTRIP
360
44D
  0
DICTIONARY
  5
450
330
31
100
AcDbDictionary
280
     1
281
     1
  3
ACAD_XREC_ROUNDTRIP
360
451
  0
DICTIONARY
  5
44E
330
30
100
AcDbDictionary
280
     1
281
     1
  3
ACAD_XREC_ROUNDTRIP
360
44F
  0
DICTIONARY
  5
452
330
32
100
AcDbDictionary
280
     1
281
     1
  3
ACAD_XREC_ROUNDTRIP
360
453
  0
DICTIONARY
  5
45A
330
36
100
AcDbDictionary
280
     1
281
     1
  3
ACAD_XREC_ROUNDTRIP
360
45B
  0
DICTIONARY
  5
462
330
3A
100
AcDbDictionary
280
     1
281
     1
  3
ACAD_XREC_ROUNDTRIP
360
463
  0
DICTIONARY
  5
456
330
34
100
AcDbDictionary
280
     1
281
     1
  3
ACAD_XREC_ROUNDTRIP
360
457
  0
DICTIONARY
  5
458
330
35
100
AcDbDictionary
280
     1
281
     1
  3
ACAD_XREC_ROUNDTRIP
360
459
  0
DICTIONARY
  5
460
330
39
100
AcDbDictionary
280
     1
281
     1
  3
ACAD_XREC_ROUNDTRIP
360
461
  0
DICTIONARY
  5
444
330
2B
100
AcDbDictionary
280
     1
281
     1
  3
ACAD_XREC_ROUNDTRIP
360
445
  0
DICTIONARY
  5
446
330
2C
100
AcDbDictionary
280
     1
281
     1
  3
ACAD_XREC_ROUNDTRIP
360
447
  0
DICTIONARY
  5
448
330
2D
100
AcDbDictionary
280
     1
281
     1
  3
ACAD_XREC_ROUNDTRIP
360
449
  0
DICTIONARY
  5
44A
330
2E
100
AcDbDictionary
280
     1
281
     1
  3
ACAD_XREC_ROUNDTRIP
360
44B
  0
DICTIONARY
  5
45E
330
38
100
AcDbDictionary
280
     1
281
     1
  3
ACAD_XREC_ROUNDTRIP
360
45F
  0
DICTIONARY
  5
454
330
33
100
AcDbDictionary
280
     1
281
     1
  3
ACAD_XREC_ROUNDTRIP
360
455
  0
DICTIONARY
  5
45C
330
37
100
AcDbDictionary
280
     1
281
     1
  3
ACAD_XREC_ROUNDTRIP
360
45D
  0
XRECORD
  5
467
102
{ACAD_REACTORS
330
466
102
}
330
466
100
AcDbXrecord
280
     1
102
MATERIAL
148
0.0
149
0.0
149
0.0
 93
        0
 94
      127
282
     0
 72
     1
 77
     1
171
     1
175
     1
179
     1
273
     0
  0
XRECORD
  5
465
102
{ACAD_REACTORS
330
464
102
}
330
464
100
AcDbXrecord
280
     1
102
MATERIAL
148
0.0
149
0.0
149
0.0
 93
        0
 94
      127
282
     0
 72
     1
 77
     1
171
     1
175
     1
179
     1
273
     0
  0
XRECORD
  5
469
102
{ACAD_REACTORS
330
468
102
}
330
468
100
AcDbXrecord
280
     1
102
MATERIAL
148
0.0
149
0.0
149
0.0
 93
        0
 94
      127
282
     0
 72
     1
 77
     1
171
     1
175
     1
179
     1
273
     0
  0
XRECORD
  5
44D
102
{ACAD_REACTORS
330
44C
102
}
330
44C
100
AcDbXrecord
280
     1
102
RTVSPropertyOp0
 70
     1
102
RTVSPropertyOp1
 70
     1
102
RTVSPropertyOp2
 70
     1
102
RTVSPropertyOp3
 70
     1
102
RTVSPropertyOp4
 70
     1
102
RTVSPropertyOp5
 70
     1
102
RTVSPropertyOp6
 70
     1
102
RTVSPropertyOp7
 70
     1
102
RTVSPropertyOp8
 70
     1
102
RTVSPropertyOp9
 70
     1
102
RTVSPropertyOp10
 70
     1
102
RTVSPropertyOp11
 70
     1
102
RTVSPropertyOp12
 70
     1
102
RTVSPropertyOp13
 70
     1
102
RTVSPropertyOp14
 70
     1
102
RTVSPropertyOp15
 70
     1
102
RTVSPropertyOp16
 70
     1
102
RTVSPropertyOp17
 70
     1
102
RTVSPropertyOp18
 70
     1
102
RTVSPropertyOp19
 70
     1
102
RTVSPropertyOp20
 70
     1
102
RTVSPropertyOp21
 70
     1
102
RTVSPropertyOp22
 70
     1
102
RTVSPropertyOp23
 70
     1
102
RTVSPropertyOp24
 70
     1
102
RTVSPropertyOp25
 70
     1
102
RTVSPropertyOp26
 70
     1
102
RTVSPropertyOp27
 70
     1
102
RTVSPropertyOp28
 70
     1
102
RTVSPropertyOp29
 70
     1
102
RTVSPropertyOp30
 70
     1
102
RTVSPropertyOp31
 70
     1
102
RTVSPropertyOp32
 70
     1
  0
XRECORD
  5
451
102
{ACAD_REACTORS
330
450
102
}
330
450
100
AcDbXrecord
280
     1
102
RTVSPropertyOp0
 70
     1
102
RTVSPropertyOp1
 70
     1
102
RTVSPropertyOp2
 70
     1
102
RTVSPropertyOp3
 70
     1
102
RTVSPropertyOp4
 70
     1
102
RTVSPropertyOp5
 70
     1
102
RTVSPropertyOp6
 70
     1
102
RTVSPropertyOp7
 70
     1
102
RTVSPropertyOp8
 70
     1
102
RTVSPropertyOp9
 70
     1
102
RTVSPropertyOp10
 70
     1
102
RTVSPropertyOp11
 70
     1
102
RTVSPropertyOp12
 70
     1
102
RTVSPropertyOp13
 70
     1
102
RTVSPropertyOp14
 70
     1
102
RTVSPropertyOp15
 70
     1
102
RTVSPropertyOp16
 70
     1
102
RTVSPropertyOp17
 70
     1
102
RTVSPropertyOp18
 70
     1
102
RTVSPropertyOp19
 70
     1
102
RTVSPropertyOp20
 70
     1
102
RTVSPropertyOp21
 70
     1
102
RTVSPropertyOp22
 70
     1
102
RTVSPropertyOp23
 70
     1
102
RTVSPropertyOp24
 70
     1
102
RTVSPropertyOp25
 70
     1
102
RTVSPropertyOp26
 70
     1
102
RTVSPropertyOp27
 70
     1
102
RTVSPropertyOp28
 70
     1
102
RTVSPropertyOp29
 70
     1
102
RTVSPropertyOp30
 70
     1
102
RTVSPropertyOp31
 70
     1
102
RTVSPropertyOp32
 70
     1
  0
XRECORD
  5
44F
102
{ACAD_REACTORS
330
44E
102
}
330
44E
100
AcDbXrecord
280
     1
102
RTVSPropertyOp0
 70
     1
102
RTVSPropertyOp1
 70
     1
102
RTVSPropertyOp2
 70
     1
102
RTVSPropertyOp3
 70
     1
102
RTVSPropertyOp4
 70
     1
102
RTVSPropertyOp5
 70
     1
102
RTVSPropertyOp6
 70
     1
102
RTVSPropertyOp7
 70
     1
102
RTVSPropertyOp8
 70
     1
102
RTVSPropertyOp9
 70
     1
102
RTVSPropertyOp10
 70
     1
102
RTVSPropertyOp11
 70
     1
102
RTVSPropertyOp12
 70
     1
102
RTVSPropertyOp13
 70
     1
102
RTVSPropertyOp14
 70
     1
102
RTVSPropertyOp15
 70
     1
102
RTVSPropertyOp16
 70
     1
102
RTVSPropertyOp17
 70
     1
102
RTVSPropertyOp18
 70
     1
102
RTVSPropertyOp19
 70
     1
102
RTVSPropertyOp20
 70
     1
102
RTVSPropertyOp21
 70
     1
102
RTVSPropertyOp22
 70
     1
102
RTVSPropertyOp23
 70
     1
102
RTVSPropertyOp24
 70
     1
102
RTVSPropertyOp25
 70
     1
102
RTVSPropertyOp26
 70
     1
102
RTVSPropertyOp27
 70
     1
102
RTVSPropertyOp28
 70
     1
102
RTVSPropertyOp29
 70
     1
102
RTVSPropertyOp30
 70
     1
102
RTVSPropertyOp31
 70
     1
102
RTVSPropertyOp32
 70
     1
  0
XRECORD
  5
453
102
{ACAD_REACTORS
330
452
102
}
330
452
100
AcDbXrecord
280
     1
102
RTVSPropertyOp0
 70
     1
102
RTVSPropertyOp1
 70
     1
102
RTVSPropertyOp2
 70
     1
102
RTVSPropertyOp3
 70
     1
102
RTVSPropertyOp4
 70
     1
102
RTVSPropertyOp5
 70
     1
102
RTVSPropertyOp6
 70
     1
102
RTVSPropertyOp7
 70
     1
102
RTVSPropertyOp8
 70
     1
102
RTVSPropertyOp9
 70
     1
102
RTVSPropertyOp10
 70
     1
102
RTVSPropertyOp11
 70
     1
102
RTVSPropertyOp12
 70
     1
102
RTVSPropertyOp13
 70
     1
102
RTVSPropertyOp14
 70
     1
102
RTVSPropertyOp15
 70
     1
102
RTVSPropertyOp16
 70
     1
102
RTVSPropertyOp17
 70
     1
102
RTVSPropertyOp18
 70
     1
102
RTVSPropertyOp19
 70
     1
102
RTVSPropertyOp20
 70
     1
102
RTVSPropertyOp21
 70
     1
102
RTVSPropertyOp22
 70
     1
102
RTVSPropertyOp23
 70
     1
102
RTVSPropertyOp24
 70
     1
102
RTVSPropertyOp25
 70
     1
102
RTVSPropertyOp26
 70
     1
102
RTVSPropertyOp27
 70
     1
102
RTVSPropertyOp28
 70
     1
102
RTVSPropertyOp29
 70
     1
102
RTVSPropertyOp30
 70
     1
102
RTVSPropertyOp31
 70
     1
102
RTVSPropertyOp32
 70
     1
  0
XRECORD
  5
45B
102
{ACAD_REACTORS
330
45A
102
}
330
45A
100
AcDbXrecord
280
     1
102
RTVSPropertyOp0
 70
     1
102
RTVSPropertyOp1
 70
     1
102
RTVSPropertyOp2
 70
     1
102
RTVSPropertyOp3
 70
     1
102
RTVSPropertyOp4
 70
     1
102
RTVSPropertyOp5
 70
     1
102
RTVSPropertyOp6
 70
     1
102
RTVSPropertyOp7
 70
     1
102
RTVSPropertyOp8
 70
     1
102
RTVSPropertyOp9
 70
     1
102
RTVSPropertyOp10
 70
     1
102
RTVSPropertyOp11
 70
     1
102
RTVSPropertyOp12
 70
     1
102
RTVSPropertyOp13
 70
     1
102
RTVSPropertyOp14
 70
     1
102
RTVSPropertyOp15
 70
     1
102
RTVSPropertyOp16
 70
     1
102
RTVSPropertyOp17
 70
     1
102
RTVSPropertyOp18
 70
     1
102
RTVSPropertyOp19
 70
     1
102
RTVSPropertyOp20
 70
     1
102
RTVSPropertyOp21
 70
     1
102
RTVSPropertyOp22
 70
     1
102
RTVSPropertyOp23
 70
     1
102
RTVSPropertyOp24
 70
     1
102
RTVSPropertyOp25
 70
     1
102
RTVSPropertyOp26
 70
     1
102
RTVSPropertyOp27
 70
     1
102
RTVSPropertyOp28
 70
     1
102
RTVSPropertyOp29
 70
     1
102
RTVSPropertyOp30
 70
     1
102
RTVSPropertyOp31
 70
     1
102
RTVSPropertyOp32
 70
     1
  0
XRECORD
  5
463
102
{ACAD_REACTORS
330
462
102
}
330
462
100
AcDbXrecord
280
     1
102
RTVSPropertyOp0
 70
     1
102
RTVSPropertyOp1
 70
     1
102
RTVSPropertyOp2
 70
     1
102
RTVSPropertyOp3
 70
     1
102
RTVSPropertyOp4
 70
     1
102
RTVSPropertyOp5
 70
     1
102
RTVSPropertyOp6
 70
     1
102
RTVSPropertyOp7
 70
     1
102
RTVSPropertyOp8
 70
     1
102
RTVSPropertyOp9
 70
     1
102
RTVSPropertyOp10
 70
     1
102
RTVSPropertyOp11
 70
     1
102
RTVSPropertyOp12
 70
     1
102
RTVSPropertyOp13
 70
     1
102
RTVSPropertyOp14
 70
     1
102
RTVSPropertyOp15
 70
     1
102
RTVSPropertyOp16
 70
     1
102
RTVSPropertyOp17
 70
     1
102
RTVSPropertyOp18
 70
     1
102
RTVSPropertyOp19
 70
     1
102
RTVSPropertyOp20
 70
     1
102
RTVSPropertyOp21
 70
     1
102
RTVSPropertyOp22
 70
     1
102
RTVSPropertyOp23
 70
     1
102
RTVSPropertyOp24
 70
     1
102
RTVSPropertyOp25
 70
     1
102
RTVSPropertyOp26
 70
     1
102
RTVSPropertyOp27
 70
     1
102
RTVSPropertyOp28
 70
     1
102
RTVSPropertyOp29
 70
     1
102
RTVSPropertyOp30
 70
     1
102
RTVSPropertyOp31
 70
     1
102
RTVSPropertyOp32
 70
     1
  0
XRECORD
  5
457
102
{ACAD_REACTORS
330
456
102
}
330
456
100
AcDbXrecord
280
     1
102
RTVSPropertyOp0
 70
     1
102
RTVSPropertyOp1
 70
     1
102
RTVSPropertyOp2
 70
     1
102
RTVSPropertyOp3
 70
     1
102
RTVSPropertyOp4
 70
     1
102
RTVSPropertyOp5
 70
     1
102
RTVSPropertyOp6
 70
     1
102
RTVSPropertyOp7
 70
     1
102
RTVSPropertyOp8
 70
     1
102
RTVSPropertyOp9
 70
     1
102
RTVSPropertyOp10
 70
     1
102
RTVSPropertyOp11
 70
     1
102
RTVSPropertyOp12
 70
     1
102
RTVSPropertyOp13
 70
     1
102
RTVSPropertyOp14
 70
     1
102
RTVSPropertyOp15
 70
     1
102
RTVSPropertyOp16
 70
     1
102
RTVSPropertyOp17
 70
     1
102
RTVSPropertyOp18
 70
     1
102
RTVSPropertyOp19
 70
     1
102
RTVSPropertyOp20
 70
     1
102
RTVSPropertyOp21
 70
     1
102
RTVSPropertyOp22
 70
     1
102
RTVSPropertyOp23
 70
     1
102
RTVSPropertyOp24
 70
     1
102
RTVSPropertyOp25
 70
     1
102
RTVSPropertyOp26
 70
     1
102
RTVSPropertyOp27
 70
     1
102
RTVSPropertyOp28
 70
     1
102
RTVSPropertyOp29
 70
     1
102
RTVSPropertyOp30
 70
     1
102
RTVSPropertyOp31
 70
     1
102
RTVSPropertyOp32
 70
     1
  0
XRECORD
  5
459
102
{ACAD_REACTORS
330
458
102
}
330
458
100
AcDbXrecord
280
     1
102
RTVSPropertyOp0
 70
     1
102
RTVSPropertyOp1
 70
     1
102
RTVSPropertyOp2
 70
     1
102
RTVSPropertyOp3
 70
     1
102
RTVSPropertyOp4
 70
     1
102
RTVSPropertyOp5
 70
     1
102
RTVSPropertyOp6
 70
     1
102
RTVSPropertyOp7
 70
     1
102
RTVSPropertyOp8
 70
     1
102
RTVSPropertyOp9
 70
     1
102
RTVSPropertyOp10
 70
     1
102
RTVSPropertyOp11
 70
     1
102
RTVSPropertyOp12
 70
     1
102
RTVSPropertyOp13
 70
     1
102
RTVSPropertyOp14
 70
     1
102
RTVSPropertyOp15
 70
     1
102
RTVSPropertyOp16
 70
     1
102
RTVSPropertyOp17
 70
     1
102
RTVSPropertyOp18
 70
     1
102
RTVSPropertyOp19
 70
     1
102
RTVSPropertyOp20
 70
     1
102
RTVSPropertyOp21
 70
     1
102
RTVSPropertyOp22
 70
     1
102
RTVSPropertyOp23
 70
     1
102
RTVSPropertyOp24
 70
     1
102
RTVSPropertyOp25
 70
     1
102
RTVSPropertyOp26
 70
     1
102
RTVSPropertyOp27
 70
     1
102
RTVSPropertyOp28
 70
     1
102
RTVSPropertyOp29
 70
     1
102
RTVSPropertyOp30
 70
     1
102
RTVSPropertyOp31
 70
     1
102
RTVSPropertyOp32
 70
     1
  0
XRECORD
  5
461
102
{ACAD_REACTORS
330
460
102
}
330
460
100
AcDbXrecord
280
     1
102
RTVSPropertyOp0
 70
     1
102
RTVSPropertyOp1
 70
     1
102
RTVSPropertyOp2
 70
     1
102
RTVSPropertyOp3
 70
     1
102
RTVSPropertyOp4
 70
     1
102
RTVSPropertyOp5
 70
     1
102
RTVSPropertyOp6
 70
     1
102
RTVSPropertyOp7
 70
     1
102
RTVSPropertyOp8
 70
     1
102
RTVSPropertyOp9
 70
     1
102
RTVSPropertyOp10
 70
     1
102
RTVSPropertyOp11
 70
     1
102
RTVSPropertyOp12
 70
     1
102
RTVSPropertyOp13
 70
     1
102
RTVSPropertyOp14
 70
     1
102
RTVSPropertyOp15
 70
     1
102
RTVSPropertyOp16
 70
     1
102
RTVSPropertyOp17
 70
     1
102
RTVSPropertyOp18
 70
     1
102
RTVSPropertyOp19
 70
     1
102
RTVSPropertyOp20
 70
     1
102
RTVSPropertyOp21
 70
     1
102
RTVSPropertyOp22
 70
     1
102
RTVSPropertyOp23
 70
     1
102
RTVSPropertyOp24
 70
     1
102
RTVSPropertyOp25
 70
     1
102
RTVSPropertyOp26
 70
     1
102
RTVSPropertyOp27
 70
     1
102
RTVSPropertyOp28
 70
     1
102
RTVSPropertyOp29
 70
     1
102
RTVSPropertyOp30
 70
     1
102
RTVSPropertyOp31
 70
     1
102
RTVSPropertyOp32
 70
     1
  0
XRECORD
  5
445
102
{ACAD_REACTORS
330
444
102
}
330
444
100
AcDbXrecord
280
     1
102
RTVSPropertyOp0
 70
     1
102
RTVSPropertyOp1
 70
     1
102
RTVSPropertyOp2
 70
     1
102
RTVSPropertyOp3
 70
     1
102
RTVSPropertyOp4
 70
     1
102
RTVSPropertyOp5
 70
     1
102
RTVSPropertyOp6
 70
     1
102
RTVSPropertyOp7
 70
     1
102
RTVSPropertyOp8
 70
     1
102
RTVSPropertyOp9
 70
     1
102
RTVSPropertyOp10
 70
     1
102
RTVSPropertyOp11
 70
     1
102
RTVSPropertyOp12
 70
     1
102
RTVSPropertyOp13
 70
     1
102
RTVSPropertyOp14
 70
     1
102
RTVSPropertyOp15
 70
     1
102
RTVSPropertyOp16
 70
     1
102
RTVSPropertyOp17
 70
     1
102
RTVSPropertyOp18
 70
     1
102
RTVSPropertyOp19
 70
     1
102
RTVSPropertyOp20
 70
     1
102
RTVSPropertyOp21
 70
     1
102
RTVSPropertyOp22
 70
     1
102
RTVSPropertyOp23
 70
     1
102
RTVSPropertyOp24
 70
     1
102
RTVSPropertyOp25
 70
     1
102
RTVSPropertyOp26
 70
     1
102
RTVSPropertyOp27
 70
     1
102
RTVSPropertyOp28
 70
     1
102
RTVSPropertyOp29
 70
     1
102
RTVSPropertyOp30
 70
     1
102
RTVSPropertyOp31
 70
     1
102
RTVSPropertyOp32
 70
     1
  0
XRECORD
  5
447
102
{ACAD_REACTORS
330
446
102
}
330
446
100
AcDbXrecord
280
     1
102
RTVSPropertyOp0
 70
     1
102
RTVSPropertyOp1
 70
     1
102
RTVSPropertyOp2
 70
     1
102
RTVSPropertyOp3
 70
     1
102
RTVSPropertyOp4
 70
     1
102
RTVSPropertyOp5
 70
     1
102
RTVSPropertyOp6
 70
     1
102
RTVSPropertyOp7
 70
     1
102
RTVSPropertyOp8
 70
     1
102
RTVSPropertyOp9
 70
     1
102
RTVSPropertyOp10
 70
     1
102
RTVSPropertyOp11
 70
     1
102
RTVSPropertyOp12
 70
     1
102
RTVSPropertyOp13
 70
     1
102
RTVSPropertyOp14
 70
     1
102
RTVSPropertyOp15
 70
     1
102
RTVSPropertyOp16
 70
     1
102
RTVSPropertyOp17
 70
     1
102
RTVSPropertyOp18
 70
     1
102
RTVSPropertyOp19
 70
     1
102
RTVSPropertyOp20
 70
     1
102
RTVSPropertyOp21
 70
     1
102
RTVSPropertyOp22
 70
     1
102
RTVSPropertyOp23
 70
     1
102
RTVSPropertyOp24
 70
     1
102
RTVSPropertyOp25
 70
     1
102
RTVSPropertyOp26
 70
     1
102
RTVSPropertyOp27
 70
     1
102
RTVSPropertyOp28
 70
     1
102
RTVSPropertyOp29
 70
     1
102
RTVSPropertyOp30
 70
     1
102
RTVSPropertyOp31
 70
     1
102
RTVSPropertyOp32
 70
     1
  0
XRECORD
  5
449
102
{ACAD_REACTORS
330
448
102
}
330
448
100
AcDbXrecord
280
     1
102
RTVSPropertyOp0
 70
     1
102
RTVSPropertyOp1
 70
     1
102
RTVSPropertyOp2
 70
     1
102
RTVSPropertyOp3
 70
     1
102
RTVSPropertyOp4
 70
     1
102
RTVSPropertyOp5
 70
     1
102
RTVSPropertyOp6
 70
     1
102
RTVSPropertyOp7
 70
     1
102
RTVSPropertyOp8
 70
     1
102
RTVSPropertyOp9
 70
     1
102
RTVSPropertyOp10
 70
     1
102
RTVSPropertyOp11
 70
     1
102
RTVSPropertyOp12
 70
     1
102
RTVSPropertyOp13
 70
     1
102
RTVSPropertyOp14
 70
     1
102
RTVSPropertyOp15
 70
     1
102
RTVSPropertyOp16
 70
     1
102
RTVSPropertyOp17
 70
     1
102
RTVSPropertyOp18
 70
     1
102
RTVSPropertyOp19
 70
     1
102
RTVSPropertyOp20
 70
     1
102
RTVSPropertyOp21
 70
     1
102
RTVSPropertyOp22
 70
     1
102
RTVSPropertyOp23
 70
     1
102
RTVSPropertyOp24
 70
     1
102
RTVSPropertyOp25
 70
     1
102
RTVSPropertyOp26
 70
     1
102
RTVSPropertyOp27
 70
     1
102
RTVSPropertyOp28
 70
     1
102
RTVSPropertyOp29
 70
     1
102
RTVSPropertyOp30
 70
     1
102
RTVSPropertyOp31
 70
     1
102
RTVSPropertyOp32
 70
     1
  0
XRECORD
  5
44B
102
{ACAD_REACTORS
330
44A
102
}
330
44A
100
AcDbXrecord
280
     1
102
RTVSPropertyOp0
 70
     1
102
RTVSPropertyOp1
 70
     1
102
RTVSPropertyOp2
 70
     1
102
RTVSPropertyOp3
 70
     1
102
RTVSPropertyOp4
 70
     1
102
RTVSPropertyOp5
 70
     1
102
RTVSPropertyOp6
 70
     1
102
RTVSPropertyOp7
 70
     1
102
RTVSPropertyOp8
 70
     1
102
RTVSPropertyOp9
 70
     1
102
RTVSPropertyOp10
 70
     1
102
RTVSPropertyOp11
 70
     1
102
RTVSPropertyOp12
 70
     1
102
RTVSPropertyOp13
 70
     1
102
RTVSPropertyOp14
 70
     1
102
RTVSPropertyOp15
 70
     1
102
RTVSPropertyOp16
 70
     1
102
RTVSPropertyOp17
 70
     1
102
RTVSPropertyOp18
 70
     1
102
RTVSPropertyOp19
 70
     1
102
RTVSPropertyOp20
 70
     1
102
RTVSPropertyOp21
 70
     1
102
RTVSPropertyOp22
 70
     1
102
RTVSPropertyOp23
 70
     1
102
RTVSPropertyOp24
 70
     1
102
RTVSPropertyOp25
 70
     1
102
RTVSPropertyOp26
 70
     1
102
RTVSPropertyOp27
 70
     1
102
RTVSPropertyOp28
 70
     1
102
RTVSPropertyOp29
 70
     1
102
RTVSPropertyOp30
 70
     1
102
RTVSPropertyOp31
 70
     1
102
RTVSPropertyOp32
 70
     1
  0
XRECORD
  5
45F
102
{ACAD_REACTORS
330
45E
102
}
330
45E
100
AcDbXrecord
280
     1
102
RTVSPropertyOp0
 70
     1
102
RTVSPropertyOp1
 70
     1
102
RTVSPropertyOp2
 70
     1
102
RTVSPropertyOp3
 70
     1
102
RTVSPropertyOp4
 70
     1
102
RTVSPropertyOp5
 70
     1
102
RTVSPropertyOp6
 70
     1
102
RTVSPropertyOp7
 70
     1
102
RTVSPropertyOp8
 70
     1
102
RTVSPropertyOp9
 70
     1
102
RTVSPropertyOp10
 70
     1
102
RTVSPropertyOp11
 70
     1
102
RTVSPropertyOp12
 70
     1
102
RTVSPropertyOp13
 70
     1
102
RTVSPropertyOp14
 70
     1
102
RTVSPropertyOp15
 70
     1
102
RTVSPropertyOp16
 70
     1
102
RTVSPropertyOp17
 70
     1
102
RTVSPropertyOp18
 70
     1
102
RTVSPropertyOp19
 70
     1
102
RTVSPropertyOp20
 70
     1
102
RTVSPropertyOp21
 70
     1
102
RTVSPropertyOp22
 70
     1
102
RTVSPropertyOp23
 70
     1
102
RTVSPropertyOp24
 70
     1
102
RTVSPropertyOp25
 70
     1
102
RTVSPropertyOp26
 70
     1
102
RTVSPropertyOp27
 70
     1
102
RTVSPropertyOp28
 70
     1
102
RTVSPropertyOp29
 70
     1
102
RTVSPropertyOp30
 70
     1
102
RTVSPropertyOp31
 70
     1
102
RTVSPropertyOp32
 70
     1
  0
XRECORD
  5
455
102
{ACAD_REACTORS
330
454
102
}
330
454
100
AcDbXrecord
280
     1
102
RTVSPropertyOp0
 70
     1
102
RTVSPropertyOp1
 70
     1
102
RTVSPropertyOp2
 70
     1
102
RTVSPropertyOp3
 70
     1
102
RTVSPropertyOp4
 70
     1
102
RTVSPropertyOp5
 70
     1
102
RTVSPropertyOp6
 70
     1
102
RTVSPropertyOp7
 70
     1
102
RTVSPropertyOp8
 70
     1
102
RTVSPropertyOp9
 70
     1
102
RTVSPropertyOp10
 70
     1
102
RTVSPropertyOp11
 70
     1
102
RTVSPropertyOp12
 70
     1
102
RTVSPropertyOp13
 70
     1
102
RTVSPropertyOp14
 70
     1
102
RTVSPropertyOp15
 70
     1
102
RTVSPropertyOp16
 70
     1
102
RTVSPropertyOp17
 70
     1
102
RTVSPropertyOp18
 70
     1
102
RTVSPropertyOp19
 70
     1
102
RTVSPropertyOp20
 70
     1
102
RTVSPropertyOp21
 70
     1
102
RTVSPropertyOp22
 70
     1
102
RTVSPropertyOp23
 70
     1
102
RTVSPropertyOp24
 70
     1
102
RTVSPropertyOp25
 70
     1
102
RTVSPropertyOp26
 70
     1
102
RTVSPropertyOp27
 70
     1
102
RTVSPropertyOp28
 70
     1
102
RTVSPropertyOp29
 70
     1
102
RTVSPropertyOp30
 70
     1
102
RTVSPropertyOp31
 70
     1
102
RTVSPropertyOp32
 70
     1
  0
XRECORD
  5
45D
102
{ACAD_REACTORS
330
45C
102
}
330
45C
100
AcDbXrecord
280
     1
102
RTVSPropertyOp0
 70
     1
102
RTVSPropertyOp1
 70
     1
102
RTVSPropertyOp2
 70
     1
102
RTVSPropertyOp3
 70
     1
102
RTVSPropertyOp4
 70
     1
102
RTVSPropertyOp5
 70
     1
102
RTVSPropertyOp6
 70
     1
102
RTVSPropertyOp7
 70
     1
102
RTVSPropertyOp8
 70
     1
102
RTVSPropertyOp9
 70
     1
102
RTVSPropertyOp10
 70
     1
102
RTVSPropertyOp11
 70
     1
102
RTVSPropertyOp12
 70
     1
102
RTVSPropertyOp13
 70
     1
102
RTVSPropertyOp14
 70
     1
102
RTVSPropertyOp15
 70
     1
102
RTVSPropertyOp16
 70
     1
102
RTVSPropertyOp17
 70
     1
102
RTVSPropertyOp18
 70
     1
102
RTVSPropertyOp19
 70
     1
102
RTVSPropertyOp20
 70
     1
102
RTVSPropertyOp21
 70
     1
102
RTVSPropertyOp22
 70
     1
102
RTVSPropertyOp23
 70
     1
102
RTVSPropertyOp24
 70
     1
102
RTVSPropertyOp25
 70
     1
102
RTVSPropertyOp26
 70
     1
102
RTVSPropertyOp27
 70
     1
102
RTVSPropertyOp28
 70
     1
102
RTVSPropertyOp29
 70
     1
102
RTVSPropertyOp30
 70
     1
102
RTVSPropertyOp31
 70
     1
102
RTVSPropertyOp32
 70
     1
  0
ENDSEC
  0
EOF
